[2006] [欧美] [剧情] [WEB-1080P] 地狱使者/灭世危机 Covert.One.The.Hades.Factor.2006.1080p.WEBRip.x264-RARBG 3.15GB

uump4 13天前 327

悠悠MP4_MP4电影下载_地狱使者/灭世危机 Covert.One.The.Hades.Factor.2006.1080p.WEBRip.x264-RARBG 3.15GB
悠悠MP4_MP4电影下载_地狱使者/灭世危机 Covert.One.The.Hades.Factor.2006.1080p.WEBRip.x264-RARBG 3.15GB

◎译  名 地狱使者 / Covert One: The Hades Factor / 灭世危机
◎片  名 The Hades factor
◎年  代 2006
◎产  地 美国
◎类  别 剧情 / 动作 / 悬疑 / 惊悚
◎语  言 英语
◎上映日期 2006-04-09
◎IMDb评分  5.8/10 from 1549 users
◎IMDb链接  https://www.imdb.com/title/tt0493327
◎豆瓣评分 6.1/10 from 137 users
◎豆瓣链接 https://movie.douban.com/subject/2045865/
◎集  数 2
◎片  长 80分钟
◎导  演 米克·杰克逊 Mick Jackson
◎主  演 斯蒂芬·多尔夫 Stephen Dorff
       米拉·索维诺 Mira Sorvino
       布莱尔·安德伍德 Blair Underwood


◎标  签 美国 | 病毒 | 动作 | 美国电影 | 犯罪 | 惊悚 | 米克·杰克逊 | 2006

◎简  介  

  美国出现神秘致命的感染性疾病,其传播速度之广让人恐惧,更有甚者,部分病毒被阿拉伯恐怖分子所掌握。史密斯与美国“隐蔽一号”特种部队奉命进行调查。正当稍有眉目时,他的未婚妻索菲医生被杀,迷雾重重,无限玄机,迷雾散开时,病毒竟然是美军自己制造出来的,后被内奸偷偷带出,为恐怖分子所用,美国人自食其果。


Video

ID                                       : 1

Format                                   : AVC

Format/Info                              : Advanced Video Codec

Format profile                           : High@L4.1

Format settings                          : CABAC / 4 Ref Frames

Format settings, CABAC                   : Yes

Format settings, Reference frames        : 4 frames

Codec ID                                 : avc1

Codec ID/Info                            : Advanced Video Coding

Duration                                 : 2 h 45 min

Bit rate                                 : 2 500 kb/s

Width                                    : 1 920 pixels

Height                                   : 1 080 pixels

Display aspect ratio                     : 16:9

Frame rate mode                          : Constant

Frame rate                               : 23.976 (23976/1000/34539) FPS

Color space                              : YUV

Chroma subsampling                       : 4:2:0

Bit depth                                : 8 bits

Scan type                                : Progressive

Bits/(Pixel*Frame)                       : 0.050

Stream size                              : 2.88 GiB (92%)

Writing library                          : x264 core 152 r2851M ba24899

Encoding settings                        : cabac=1 / ref=4 / deblock=1:-1:-1 / analyse=0x3:0x113 / me=umh / subme=9 / psy=1 / psy_rd=1.00:0.15 / mixed_ref=1 / me_range=24 / chroma_me=1 / trellis=2 / 8x8dct=1 / cqm=0 / deadzone=21,11 / fast_pskip=1 / chroma_qp_offset=-3 / threads=16 / lookahead_threads=4 / sliced_threads=0 / nr=0 / decimate=1 / interlaced=0 / bluray_compat=0 / constrained_intra=0 / bframes=3 / b_pyramid=2 / b_adapt=2 / b_bias=0 / direct=3 / weightb=1 / open_gop=0 / weightp=2 / keyint=250 / keyint_min=25 / scenecut=40 / intra_refresh=0 / rc_lookahead=50 / rc=2pass / mbtree=1 / bitrate=2500 / ratetol=1.0 / qcomp=0.60 / qpmin=0 / qpmax=69 / qpstep=4 / cplxblur=20.0 / qblur=0.5 / vbv_maxrate=31250 / vbv_bufsize=31250 / nal_hrd=none / filler=0 / ip_ratio=1.40 / aq=3:1.00

Encoded date                             : UTC 2020-10-17 15:05:31

Tagged date                              : UTC 2020-10-17 15:05:31

Codec configuration box                  : avcC



Audio

ID                                       : 2

Format                                   : AAC LC

Format/Info                              : Advanced Audio Codec Low Complexity

Codec ID                                 : mp4a-40-2

Duration                                 : 2 h 45 min

Bit rate mode                            : Constant

Bit rate                                 : 224 kb/s

Channel(s)                               : 6 channels

Channel layout                           : C L R Ls Rs LFE

Sampling rate                            : 48.0 kHz

Frame rate                               : 46.875 FPS (1024 SPF)

Compression mode                         : Lossy

Stream size                              : 265 MiB (8%)

Language                                 : English

Default                                  : Yes

Alternate group                          : 1

Encoded date                             : UTC 2020-10-17 15:05:31

Tagged date                              : UTC 2020-10-17 15:05:31


悠悠MP4_MP4电影下载_地狱使者/灭世危机 Covert.One.The.Hades.Factor.2006.1080p.WEBRip.x264-RARBG 3.15GB悠悠MP4_MP4电影下载_地狱使者/灭世危机 Covert.One.The.Hades.Factor.2006.1080p.WEBRip.x264-RARBG 3.15GB悠悠MP4_MP4电影下载_地狱使者/灭世危机 Covert.One.The.Hades.Factor.2006.1080p.WEBRip.x264-RARBG 3.15GB

                                                                                           

提示:如迅雷下载提示"任务出错"、"因版权无法下载",请尝试【迅雷5】
上传的附件:
最新回复 (0)
返回
本站所有资源均收集自互联网,没有提供影片资源存储, 也未参与录制、上传,若本站收录的资源无意侵犯了您的权益, 请联系邮箱:gogoimgs#gmail.com(#=@)