[2020] [其他] [喜剧] [WEB-1080P] 世纪大劫案 The.Heist.of.the.Century.2020.SPANISH.1080p.WEBRip.x264-VXT 2.04GB

uump4 10天前 408

悠悠MP4_MP4电影下载_世纪大劫案 The.Heist.of.the.Century.2020.SPANISH.1080p.WEBRip.x264-VXT 2.04GB
悠悠MP4_MP4电影下载_世纪大劫案 The.Heist.of.the.Century.2020.SPANISH.1080p.WEBRip.x264-VXT 2.04GB

◎译  名 世纪大劫案 / The Heist of the Century
◎片  名 El robo del siglo
◎年  代 2020
◎产  地 阿根廷
◎类  别 喜剧 / 犯罪
◎语  言 西班牙语
◎上映日期 2020-01-16(阿根廷)
◎IMDb评分  7.3/10 from 3105 users
◎IMDb链接  https://www.imdb.com/title/tt10948718
◎豆瓣评分 0/10 from 0 users
◎豆瓣链接 https://movie.douban.com/subject/34966343/
◎片  长 114分钟
◎导  演 艾列尔·维诺格拉德 Ariel Winograd
◎编  剧 Alex Zito / Fernando Araujo
◎主  演 古勒莫·法兰塞拉 Guillermo Francella
       迭戈·佩雷蒂 Diego Peretti
       Luis Luque
       巴勃罗·拉戈 Pablo Rago
       拉斐尔·菲洛 Rafael Ferro


◎标  签 真实事件改编 | 犯罪 | 阿根廷 | 黑色幽默 | 2020 | 阿根廷电影 | 喜剧 | 电影

◎简  介  

  In 2006, a group of thieves performed what is considered one of the most famous and smart bank heists in the history of Argentina when they rob the Banco Río branch in Acassuso.

  谷歌为您翻译:
  2006年,一群盗贼抢劫了阿卡苏索的BancoRéo分行,进行了阿根廷历史上最著名和最聪明的银行抢劫案。

  腾讯为您翻译:
  2006年,一群小偷抢劫了位于阿卡苏索的Banco R??o分行,这被认为是阿根廷历史上最著名、最聪明的银行抢劫案之一。



Video

ID                                       : 1

Format                                   : AVC

Format/Info                              : Advanced Video Codec

Format profile                           : High@L4.1

Format settings                          : CABAC / 4 Ref Frames

Format settings, CABAC                   : Yes

Format settings, Reference frames        : 4 frames

Codec ID                                 : avc1

Codec ID/Info                            : Advanced Video Coding

Duration                                 : 1 h 47 min

Bit rate                                 : 2 500 kb/s

Width                                    : 1 920 pixels

Height                                   : 804 pixels

Display aspect ratio                     : 2.40:1

Frame rate mode                          : Constant

Frame rate                               : 29.970 (29970/1000/34539) FPS

Color space                              : YUV

Chroma subsampling                       : 4:2:0

Bit depth                                : 8 bits

Scan type                                : Progressive

Bits/(Pixel*Frame)                       : 0.054

Stream size                              : 1.87 GiB (91%)

Writing library                          : x264 core 152 r2851M ba24899

Encoding settings                        : cabac=1 / ref=4 / deblock=1:-1:-1 / analyse=0x3:0x113 / me=umh / subme=9 / psy=1 / psy_rd=1.00:0.15 / mixed_ref=1 / me_range=24 / chroma_me=1 / trellis=2 / 8x8dct=1 / cqm=0 / deadzone=21,11 / fast_pskip=1 / chroma_qp_offset=-3 / threads=16 / lookahead_threads=4 / sliced_threads=0 / nr=0 / decimate=1 / interlaced=0 / bluray_compat=0 / constrained_intra=0 / bframes=3 / b_pyramid=2 / b_adapt=2 / b_bias=0 / direct=3 / weightb=1 / open_gop=0 / weightp=2 / keyint=250 / keyint_min=25 / scenecut=40 / intra_refresh=0 / rc_lookahead=50 / rc=2pass / mbtree=1 / bitrate=2500 / ratetol=1.0 / qcomp=0.60 / qpmin=0 / qpmax=69 / qpstep=4 / cplxblur=20.0 / qblur=0.5 / vbv_maxrate=31250 / vbv_bufsize=31250 / nal_hrd=none / filler=0 / ip_ratio=1.40 / aq=3:1.00

Encoded date                             : UTC 2020-10-17 13:12:27

Tagged date                              : UTC 2020-10-17 13:12:27

Codec configuration box                  : avcC



Audio

ID                                       : 2

Format                                   : AAC LC

Format/Info                              : Advanced Audio Codec Low Complexity

Codec ID                                 : mp4a-40-2

Duration                                 : 1 h 47 min

Bit rate mode                            : Constant

Bit rate                                 : 224 kb/s

Channel(s)                               : 2 channels

Channel layout                           : L R

Sampling rate                            : 48.0 kHz

Frame rate                               : 46.875 FPS (1024 SPF)

Compression mode                         : Lossy

Stream size                              : 171 MiB (8%)

Language                                 : Spanish

Default                                  : Yes

Alternate group                          : 1

Encoded date                             : UTC 2020-10-17 13:12:27

Tagged date                              : UTC 2020-10-17 13:12:27


悠悠MP4_MP4电影下载_世纪大劫案 The.Heist.of.the.Century.2020.SPANISH.1080p.WEBRip.x264-VXT 2.04GB悠悠MP4_MP4电影下载_世纪大劫案 The.Heist.of.the.Century.2020.SPANISH.1080p.WEBRip.x264-VXT 2.04GB悠悠MP4_MP4电影下载_世纪大劫案 The.Heist.of.the.Century.2020.SPANISH.1080p.WEBRip.x264-VXT 2.04GB

                                                                                           

提示:如迅雷下载提示"任务出错"、"因版权无法下载",请尝试【迅雷5】
上传的附件:
最新回复 (0)
返回
本站所有资源均收集自互联网,没有提供影片资源存储, 也未参与录制、上传,若本站收录的资源无意侵犯了您的权益, 请联系邮箱:gogoimgs#gmail.com(#=@)