[更早] [其他] [喜剧] [WEB-1080P] 累得要命/极度疲劳 Dead.Tired.1994.FRENCH.1080p.WEB-DL.AAC2.0.H264-NOGRP 3.21GB

uump4 11天前 128

悠悠MP4_MP4电影下载_累得要命/极度疲劳 Dead.Tired.1994.FRENCH.1080p.WEB-DL.AAC2.0.H264-NOGRP 3.21GB
悠悠MP4_MP4电影下载_累得要命/极度疲劳 Dead.Tired.1994.FRENCH.1080p.WEB-DL.AAC2.0.H264-NOGRP 3.21GB

◎译  名 累得要命 / Dead Tired / 极度疲劳
◎片  名 Grosse fatigue
◎年  代 1994
◎产  地 法国
◎类  别 喜剧
◎语  言 法语 / 英语
◎上映日期 1994-05-18
◎IMDb评分  6.3/10 from 1785 users
◎IMDb链接  https://www.imdb.com/title/tt0109942
◎豆瓣评分 6.5/10 from 62 users
◎豆瓣链接 https://movie.douban.com/subject/1299798/
◎片  长 92 分钟
◎导  演 米歇尔·布朗 Michel Blanc
◎编  剧 雅克·欧迪亚 Jacques Audiard / 若西安·巴拉斯科 Josiane Balasko / 米歇尔·布朗 Michel Blanc / 贝特朗·布里叶 Bertrand Blier
◎主  演 米歇尔·布朗 Michel Blanc
       克里斯蒂昂·克拉维埃 Christian Clavier
       夏洛特·甘斯布 Charlotte Gainsbourg
       卡洛尔·布盖 Carole Bouquet
       菲利普·努瓦雷 Philippe Noiret
       雷吉娜 Régine
       弗朗索瓦·莫雷尔 Fran?ois Morel
       Dominique Marcas
       Olivier Hémon
       玛丽·莫吉 Marie Mergey
       罗曼·波兰斯基 Roman Polanski
       玛蒂尔达·梅 Mathilda May
       热拉尔·朱尼奥 Gérard Jugnot
       若西安·巴拉斯科 Josiane Balasko
       多米尼克·拉冯纳特 Dominique Lavanant
       David Hallyday
       埃斯特尔·莱弗比尔 Estelle Lefébure
       Guillaume Durand
       多米尼克·贝纳尔 Dominique Besnehard
       玛丽·佩里 Marie Pillet
       文森特·格拉斯 Vincent Grass
       卡黛尔·布克阿奈夫 Kader Boukhanef
       布鲁诺·穆瓦诺 Bruno Moynot
       蒂埃里·莱尔米特 Thierry Lhermitte
       让-路易·里夏尔 Jean-Louis Richard
       玛丽-安娜·夏泽尔 Marie-Anne Chazel
       赛希尔·奥克特 Cécile Auclert
       拉乌尔·比勒 Raoul Billerey
       Jacques Buron
       Louba Guertchikoff


◎标  签 法国 | 法国电影 | 喜剧 | 1990s | 1994 | 坎城金棕榈 | 法國 | Michel_Blanc

◎简  介  

  If you're not familiar with French movies, this is an excellent one with which to start. The minor roles played by individuals such as Charlotte Gainsbourg (as herself, and seen recently in 'My Wife Is An Actress' directed by her husband, playing in English opposite Terence Stamp) is just one of many exemplary, comic performances in this droll, and very original comedy.

◎获奖情况  

  第47届戛纳电影节(1994)
  主竞赛单元 金棕榈奖(提名) 米歇尔·布朗
  主竞赛单元 最佳编剧 米歇尔·布朗
  技术大奖 皮托夫

  谷歌为您翻译:
  如果您不熟悉法国电影,那么这是一个很好的起点。夏洛特·盖恩斯堡(Charlotte Gainsbourg)等人所扮演的次要角色(她本人最近在由丈夫执导的《我的妻子是女演员》中饰演,在特伦斯·斯坦普(英语:Terence Stamp)的对面扮演英语角色)只是这部滑稽剧中许多示范性喜剧表演之一和非常原创的喜剧

  腾讯为您翻译:
  如果你不熟悉法国电影,这是一个很好的开始。夏洛特·甘斯伯格(Charlotte Gainsburg)等人扮演的次要角色(最近在她丈夫执导的“我的妻子是一个女演员”中饰演她自己,用英语与特伦斯·斯坦普(Terence Stamp)对手戏)只是这部滑稽而非常原创的喜剧中众多模范喜剧表演之一。

  本站为您翻译:
  如果你不熟悉法国电影,这是一个很好的开始。这些次要角色由个人扮演,比如夏洛特·甘斯柏格(扮演她自己,最近在她丈夫导演的《我的妻子是个女演员》中出现,用英语演出,与 Terence Stamp 演对手戏)只是这部滑稽喜剧中众多模范喜剧表演中的一个,而且非常原创喜剧。



Video

ID                                       : 1

Format                                   : AVC

Format/Info                              : Advanced Video Codec

Format profile                           : High@L4

Format settings                          : CABAC / 4 Ref Frames

Format settings, CABAC                   : Yes

Format settings, Reference frames        : 4 frames

Codec ID                                 : V_MPEG4/ISO/AVC

Duration                                 : 1 h 24 min

Bit rate                                 : 5 286 kb/s

Width                                    : 1 914 pixels

Height                                   : 1 028 pixels

Display aspect ratio                     : 1.85:1

Frame rate mode                          : Constant

Frame rate                               : 24.000 FPS

Color space                              : YUV

Chroma subsampling                       : 4:2:0

Bit depth                                : 8 bits

Scan type                                : Progressive

Bits/(Pixel*Frame)                       : 0.112

Stream size                              : 3.12 GiB (97%)

Language                                 : English

Default                                  : Yes

Forced                                   : No

Color range                              : Limited

Color primaries                          : BT.709

Transfer characteristics                 : BT.709

Matrix coefficients                      : BT.709



Audio

ID                                       : 2

Format                                   : AAC LC

Format/Info                              : Advanced Audio Codec Low Complexity

Codec ID                                 : A_AAC-2

Duration                                 : 1 h 24 min

Bit rate                                 : 159 kb/s

Channel(s)                               : 2 channels

Channel layout                           : L R

Sampling rate                            : 48.0 kHz

Frame rate                               : 46.875 FPS (1024 SPF)

Compression mode                         : Lossy

Stream size                              : 95.7 MiB (3%)

Language                                 : French

Default                                  : Yes

Forced                                   : No



Text

ID                                       : 3

Format                                   : UTF-8

Codec ID                                 : S_TEXT/UTF8

Codec ID/Info                            : UTF-8 Plain Text

Duration                                 : 1 h 18 min

Bit rate                                 : 59 b/s

Count of elements                        : 1203

Stream size                              : 33.9 KiB (0%)

Language                                 : English

Default                                  : Yes

Forced                                   : No



Menu

00:00:00.000                             : en:G??n??rique de d??but

00:00:47.000                             : en:Un malentendu

00:02:11.000                             : en:Le festival de cannes

00:08:38.000                             : en:Carole Bouquet

00:12:14.000                             : en:Un truc qui cloche

00:16:22.000                             : en:Perquisition

00:21:46.000                             : en:Les urgences

00:25:43.000                             : en:Retraite paisible

00:32:13.000                             : en:S??ance de d??dicaces

00:35:48.000                             : en:Le village

00:45:09.000                             : en:Patrick Olivier

00:54:41.000                             : en:Le cauchemar

01:00:51.000                             : en:Sabordage

01:08:58.000                             : en:S??jour a l\'ombre

01:14:15.000                             : en:C\'est reparti

01:19:32.000                             : en:G??n??rique de fin


悠悠MP4_MP4电影下载_累得要命/极度疲劳 Dead.Tired.1994.FRENCH.1080p.WEB-DL.AAC2.0.H264-NOGRP 3.21GB悠悠MP4_MP4电影下载_累得要命/极度疲劳 Dead.Tired.1994.FRENCH.1080p.WEB-DL.AAC2.0.H264-NOGRP 3.21GB悠悠MP4_MP4电影下载_累得要命/极度疲劳 Dead.Tired.1994.FRENCH.1080p.WEB-DL.AAC2.0.H264-NOGRP 3.21GB

                                                                                           

提示:如迅雷下载提示"任务出错"、"因版权无法下载",请尝试【迅雷5】
上传的附件:
最新回复 (0)
返回
本站所有资源均收集自互联网,没有提供影片资源存储, 也未参与录制、上传,若本站收录的资源无意侵犯了您的权益, 请联系邮箱:gogoimgs#gmail.com(#=@)