[2020] [欧美] [悬疑] [BD-Remux] 你本应离开/不该在此 You.Should.Have.Left.2020.1080p.BluRay.REMUX.AVC.DTS-HD.MA.5.1-FGT 27.15GB

uump4 11天前 119

悠悠MP4_MP4电影下载_你本应离开/不该在此 You.Should.Have.Left.2020.1080p.BluRay.REMUX.AVC.DTS-HD.MA.5.1-FGT 27.15GB
悠悠MP4_MP4电影下载_你本应离开/不该在此 You.Should.Have.Left.2020.1080p.BluRay.REMUX.AVC.DTS-HD.MA.5.1-FGT 27.15GB

◎译  名 你本应离开 / 不该在此 / 你本该离开
◎片  名 You Should Have Left
◎年  代 2020
◎产  地 美国
◎类  别 悬疑 / 恐怖
◎语  言 英语
◎上映日期 2020-06-19(美国)
◎IMDb评分  8.4/10 from 5 users
◎IMDb链接  https://www.imdb.com/title/tt8201852
◎豆瓣评分 0/10 from 0 users
◎豆瓣链接 https://movie.douban.com/subject/30180873/
◎片  长 93分钟
◎导  演 大卫·凯普 David Koepp
◎编  剧 大卫·凯普 David Koepp / 丹尼尔·凯尔曼 Daniel Kehlmann
◎主  演 阿曼达·塞弗里德 Amanda Seyfried
       凯文·贝肯 Kevin Bacon
       Colin Blumenau
       Eli Powers
       Avery Tiiu Essex
       Lowri Ann Richards
       Joshua C Jackson


◎标  签 恐怖 | 惊悚 | 悬疑 | 美国 | 2020 | 美国电影 | 阿曼达·塞弗里德 | 凯文·贝肯

◎简  介  

  影片改编自同名小说,讲述一个电影编剧(贝肯饰)带着老婆(塞弗里德饰)、孩子在阿尔卑斯山附近潜心创作,但一些离奇事件却不断发生。


Video

ID                                       : 1

ID in the original source medium         : 4113 (0x1011)

Format                                   : AVC

Format/Info                              : Advanced Video Codec

Format profile                           : High@L4.1

Format settings                          : CABAC / 2 Ref Frames

Format settings, CABAC                   : Yes

Format settings, Reference frames        : 2 frames

Format settings, GOP                     : M=1, N=10

Codec ID                                 : V_MPEG4/ISO/AVC

Duration                                 : 1 h 33 min

Bit rate mode                            : Variable

Bit rate                                 : 35.7 Mb/s

Width                                    : 1 920 pixels

Height                                   : 1 080 pixels

Display aspect ratio                     : 16:9

Frame rate mode                          : Constant

Frame rate                               : 23.976 (24000/1001/34539) FPS

Color space                              : YUV

Chroma subsampling                       : 4:2:0

Bit depth                                : 8 bits

Scan type                                : Progressive

Bits/(Pixel*Frame)                       : 0.719

Stream size                              : 23.3 GiB (86%)

Title                                    : You.Should.Have.Left.2020.1080p.BluRay.REMUX.AVC.DTS-HD.MA.5.1-FGT

Language                                 : English

Default                                  : No

Forced                                   : No

Original source medium                   : Blu-ray



Audio #1

ID                                       : 2

ID in the original source medium         : 4352 (0x1100)

Format                                   : DTS XLL

Format/Info                              : Digital Theater Systems

Commercial name                          : DTS-HD Master Audio

Codec ID                                 : A_DTS

Duration                                 : 1 h 33 min

Bit rate mode                            : Variable

Bit rate                                 : 3 463 kb/s

Channel(s)                               : 6 channels

Channel layout                           : C L R Ls Rs LFE

Sampling rate                            : 48.0 kHz

Frame rate                               : 93.750 FPS (512 SPF)

Bit depth                                : 24 bits

Compression mode                         : Lossless

Stream size                              : 2.26 GiB (8%)

Title                                    : You.Should.Have.Left.2020.1080p.BluRay.REMUX.AVC.DTS-HD.MA.5.1-FGT

Language                                 : English

Default                                  : Yes

Forced                                   : No

Original source medium                   : Blu-ray



Audio #2

ID                                       : 3

ID in the original source medium         : 4353 (0x1101)

Format                                   : DTS

Format/Info                              : Digital Theater Systems

Codec ID                                 : A_DTS

Duration                                 : 1 h 33 min

Bit rate mode                            : Constant

Bit rate                                 : 768 kb/s

Channel(s)                               : 6 channels

Channel layout                           : C L R Ls Rs LFE

Sampling rate                            : 48.0 kHz

Frame rate                               : 93.750 FPS (512 SPF)

Bit depth                                : 24 bits

Compression mode                         : Lossy

Stream size                              : 513 MiB (2%)

Title                                    : You.Should.Have.Left.2020.1080p.BluRay.REMUX.AVC.DTS-HD.MA.5.1-FGT

Language                                 : Japanese

Default                                  : No

Forced                                   : No

Original source medium                   : Blu-ray



Audio #3

ID                                       : 4

ID in the original source medium         : 4354 (0x1102)

Format                                   : DTS

Format/Info                              : Digital Theater Systems

Codec ID                                 : A_DTS

Duration                                 : 1 h 33 min

Bit rate mode                            : Constant

Bit rate                                 : 768 kb/s

Channel(s)                               : 6 channels

Channel layout                           : C L R Ls Rs LFE

Sampling rate                            : 48.0 kHz

Frame rate                               : 93.750 FPS (512 SPF)

Bit depth                                : 24 bits

Compression mode                         : Lossy

Stream size                              : 513 MiB (2%)

Title                                    : You.Should.Have.Left.2020.1080p.BluRay.REMUX.AVC.DTS-HD.MA.5.1-FGT

Language                                 : French

Default                                  : No

Forced                                   : No

Original source medium                   : Blu-ray



Audio #4

ID                                       : 5

ID in the original source medium         : 4355 (0x1103)

Format                                   : DTS

Format/Info                              : Digital Theater Systems

Codec ID                                 : A_DTS

Duration                                 : 1 h 33 min

Bit rate mode                            : Constant

Bit rate                                 : 768 kb/s

Channel(s)                               : 6 channels

Channel layout                           : C L R Ls Rs LFE

Sampling rate                            : 48.0 kHz

Frame rate                               : 93.750 FPS (512 SPF)

Bit depth                                : 24 bits

Compression mode                         : Lossy

Stream size                              : 513 MiB (2%)

Title                                    : You.Should.Have.Left.2020.1080p.BluRay.REMUX.AVC.DTS-HD.MA.5.1-FGT

Language                                 : German

Default                                  : No

Forced                                   : No

Original source medium                   : Blu-ray



Text #1

ID                                       : 6

Format                                   : UTF-8

Codec ID                                 : S_TEXT/UTF8

Codec ID/Info                            : UTF-8 Plain Text

Duration                                 : 1 h 32 min

Bit rate                                 : 42 b/s

Count of elements                        : 1240

Stream size                              : 28.6 KiB (0%)

Title                                    : English-SRT

Language                                 : English

Default                                  : Yes

Forced                                   : No



Text #2

ID                                       : 7

ID in the original source medium         : 4608 (0x1200)

Format                                   : PGS

Muxing mode                              : zlib

Codec ID                                 : S_HDMV/PGS

Codec ID/Info                            : Picture based subtitle format used on BDs/HD-DVDs

Duration                                 : 1 h 29 min

Bit rate                                 : 33.8 kb/s

Count of elements                        : 2390

Stream size                              : 21.6 MiB (0%)

Title                                    : English-PGS

Language                                 : English

Default                                  : No

Forced                                   : No

Original source medium                   : Blu-ray



Text #3

ID                                       : 8

ID in the original source medium         : 4609 (0x1201)

Format                                   : PGS

Muxing mode                              : zlib

Codec ID                                 : S_HDMV/PGS

Codec ID/Info                            : Picture based subtitle format used on BDs/HD-DVDs

Duration                                 : 1 h 31 min

Bit rate                                 : 18.2 kb/s

Count of elements                        : 2156

Stream size                              : 11.9 MiB (0%)

Title                                    : Japanese-PGS

Language                                 : Japanese

Default                                  : No

Forced                                   : No

Original source medium                   : Blu-ray



Text #4

ID                                       : 9

ID in the original source medium         : 4610 (0x1202)

Format                                   : PGS

Muxing mode                              : zlib

Codec ID                                 : S_HDMV/PGS

Codec ID/Info                            : Picture based subtitle format used on BDs/HD-DVDs

Duration                                 : 1 h 31 min

Bit rate                                 : 27.2 kb/s

Count of elements                        : 2002

Stream size                              : 17.7 MiB (0%)

Title                                    : French-PGS

Language                                 : French

Default                                  : No

Forced                                   : No

Original source medium                   : Blu-ray



Text #5

ID                                       : 10

ID in the original source medium         : 4611 (0x1203)

Format                                   : PGS

Muxing mode                              : zlib

Codec ID                                 : S_HDMV/PGS

Codec ID/Info                            : Picture based subtitle format used on BDs/HD-DVDs

Duration                                 : 1 h 31 min

Bit rate                                 : 26.3 kb/s

Count of elements                        : 1848

Stream size                              : 17.1 MiB (0%)

Title                                    : German-PGS

Language                                 : German

Default                                  : No

Forced                                   : No

Original source medium                   : Blu-ray



Text #6

ID                                       : 11

ID in the original source medium         : 4612 (0x1204)

Format                                   : PGS

Muxing mode                              : zlib

Codec ID                                 : S_HDMV/PGS

Codec ID/Info                            : Picture based subtitle format used on BDs/HD-DVDs

Duration                                 : 1 h 31 min

Bit rate                                 : 23.8 kb/s

Count of elements                        : 1768

Stream size                              : 15.5 MiB (0%)

Title                                    : Dutch-PGS

Language                                 : Dutch

Default                                  : No

Forced                                   : No

Original source medium                   : Blu-ray



Text #7

ID                                       : 12

ID in the original source medium         : 4613 (0x1205)

Format                                   : PGS

Muxing mode                              : zlib

Codec ID                                 : S_HDMV/PGS

Codec ID/Info                            : Picture based subtitle format used on BDs/HD-DVDs

Duration                                 : 1 h 21 min

Bit rate                                 : 302 b/s

Count of elements                        : 36

Stream size                              : 181 KiB (0%)

Title                                    : Japanese-FORCED-PGS

Language                                 : Japanese

Default                                  : No

Forced                                   : No

Original source medium                   : Blu-ray



Text #8

ID                                       : 13

ID in the original source medium         : 4614 (0x1206)

Format                                   : PGS

Muxing mode                              : zlib

Codec ID                                 : S_HDMV/PGS

Codec ID/Info                            : Picture based subtitle format used on BDs/HD-DVDs

Duration                                 : 1 h 21 min

Bit rate                                 : 957 b/s

Count of elements                        : 46

Stream size                              : 573 KiB (0%)

Title                                    : French-FORCED-PGS

Language                                 : French

Default                                  : No

Forced                                   : No

Original source medium                   : Blu-ray



Text #9

ID                                       : 14

ID in the original source medium         : 4615 (0x1207)

Format                                   : PGS

Muxing mode                              : zlib

Codec ID                                 : S_HDMV/PGS

Codec ID/Info                            : Picture based subtitle format used on BDs/HD-DVDs

Duration                                 : 1 h 28 min

Bit rate                                 : 848 b/s

Count of elements                        : 42

Stream size                              : 551 KiB (0%)

Title                                    : German-FORCED-pgs

Language                                 : German

Default                                  : No

Forced                                   : No

Original source medium                   : Blu-ray



Menu

00:00:00.000                             : en:Chapter 01

00:04:48.579                             : en:Chapter 02

00:07:12.056                             : en:Chapter 03

00:12:00.636                             : en:Chapter 04

00:17:07.776                             : en:Chapter 05

00:23:32.577                             : en:Chapter 06

00:28:58.611                             : en:Chapter 07

00:32:40.917                             : en:Chapter 08

00:39:53.766                             : en:Chapter 09

00:44:55.901                             : en:Chapter 10

00:47:13.831                             : en:Chapter 11

00:49:41.311                             : en:Chapter 12

00:54:14.167                             : en:Chapter 13

01:00:14.235                             : en:Chapter 14

01:04:02.588                             : en:Chapter 15

01:08:27.228                             : en:Chapter 16

01:13:05.297                             : en:Chapter 17

01:18:15.357                             : en:Chapter 18

01:24:11.546                             : en:Chapter 19

01:27:47.845                             : en:Chapter 20


悠悠MP4_MP4电影下载_你本应离开/不该在此 You.Should.Have.Left.2020.1080p.BluRay.REMUX.AVC.DTS-HD.MA.5.1-FGT 27.15GB悠悠MP4_MP4电影下载_你本应离开/不该在此 You.Should.Have.Left.2020.1080p.BluRay.REMUX.AVC.DTS-HD.MA.5.1-FGT 27.15GB悠悠MP4_MP4电影下载_你本应离开/不该在此 You.Should.Have.Left.2020.1080p.BluRay.REMUX.AVC.DTS-HD.MA.5.1-FGT 27.15GB

                                                                                           

提示:如迅雷下载提示"任务出错"、"因版权无法下载",请尝试【迅雷5】
上传的附件:
最新回复 (0)
返回
本站所有资源均收集自互联网,没有提供影片资源存储, 也未参与录制、上传,若本站收录的资源无意侵犯了您的权益, 请联系邮箱:gogoimgs#gmail.com(#=@)