[2019] [其他] [剧情] [WEB-1080P] 切尔卡瑟 Cherkasy.2019.RUSSIAN.ENSUBBED.1080p.AMZN.WEBRip.DDP2.0.x264-TEPES 5.81GB

uump4 11天前 130

悠悠MP4_MP4电影下载_切尔卡瑟 Cherkasy.2019.RUSSIAN.ENSUBBED.1080p.AMZN.WEBRip.DDP2.0.x264-TEPES 5.81GB
悠悠MP4_MP4电影下载_切尔卡瑟 Cherkasy.2019.RUSSIAN.ENSUBBED.1080p.AMZN.WEBRip.DDP2.0.x264-TEPES 5.81GB

◎译  名 切尔卡瑟 / Черкассы
◎片  名 Cherkasi
◎年  代 2019
◎产  地 乌克兰
◎类  别 剧情 / 战争
◎语  言 乌克兰语
◎上映日期 2020-02-22(乌克兰)
◎IMDb评分  7.8/10 from 343 users
◎IMDb链接  https://www.imdb.com/title/tt8205656
◎豆瓣评分 0/10 from 0 users
◎豆瓣链接 https://movie.douban.com/subject/30214129/
◎片  长 102分钟

◎标  签 P-WarsawA入围主竞赛

◎简  介  

  The year is 2014. Mishko and Lev are fellow villagers serving on the minesweeper “Cherkasy”, a ship of the Ukrainian Navy stationed in the port of the Crimean Lake Donuzlav that is connected to the Black Sea. When the invasion of Crimea by the infamous “little green men” begins and President Yanukovych flees the country, the “Cherkasy” and other ships of the Ukrainian fleet are blocked on the lake. Successive Ukrainian ships surrender to the Russians. Only the crew of the "Cherkasy" decide to resist. Meanwhile, the Russians prepare to attack the minesweeper. The crew have to decide whether to defend themselves at all cost and to the very end. Based on true events, this is a story about the last warship in Crimea to sail under the Ukrainian flag.

  谷歌为您翻译:
  那是2014年。米什科和列夫是村民,他们在扫雷艇“切尔卡瑟”上工作,这是乌克兰海军的一艘船,驻扎在克里米亚多瑙兹拉夫湖的港口,与黑海相连。当臭名昭著的“小绿人”开始入侵克里米亚,而亚努科维奇总统逃离该国时,“切尔卡瑟”号和乌克兰舰队的其他船只在湖上被封锁。连续的乌克兰船只向俄国人投降。只有“切尔卡瑟”号的机组人员决定抵抗。同时,俄罗斯人准备进攻扫雷车。机组必须决定是否不惜一切代价捍卫自己,直到最后。根据真实的事件,这是一个有关克里米亚最后一艘在乌克兰国旗下航行的军舰的故事。

  腾讯为您翻译:
  这一年是2014年。米什科和列夫是在??Cherkasy??号扫雷舰上服役的村民,这是乌克兰海军的一艘船,驻扎在与黑海相连的克里米亚多努兹拉夫湖港口。当臭名昭著的??小绿人??入侵克里米亚,亚努科维奇总统逃离克里米亚时,??Cherkasy??和乌克兰舰队的其他船只在湖上被封锁。接二连三的乌克兰船只向俄国人投降。只有“切尔凯西”号的船员才决定抵抗。与此同时,俄罗斯人准备攻击扫雷舰。船员们必须决定是否不惜一切代价保卫自己,直到最后。根据真实事件改编,这是一个关于克里米亚最后一艘悬挂乌克兰国旗的军舰的故事。



Video

ID                                       : 3

Format                                   : AVC

Format/Info                              : Advanced Video Codec

Format profile                           : High@L4

Format settings                          : CABAC / 4 Ref Frames

Format settings, CABAC                   : Yes

Format settings, Reference frames        : 4 frames

Codec ID                                 : V_MPEG4/ISO/AVC

Duration                                 : 1 h 34 min

Bit rate mode                            : Constant

Bit rate                                 : 8 617 kb/s

Nominal bit rate                         : 10 000 kb/s

Width                                    : 1 920 pixels

Height                                   : 1 080 pixels

Display aspect ratio                     : 16:9

Frame rate mode                          : Constant

Frame rate                               : 24.000 FPS

Color space                              : YUV

Chroma subsampling                       : 4:2:0

Bit depth                                : 8 bits

Scan type                                : Progressive

Bits/(Pixel*Frame)                       : 0.173

Stream size                              : 5.66 GiB (97%)

Default                                  : Yes

Forced                                   : No

Color range                              : Limited

Color primaries                          : BT.709

Transfer characteristics                 : BT.709

Matrix coefficients                      : BT.709



Audio

ID                                       : 1

Format                                   : E-AC-3

Format/Info                              : Enhanced AC-3

Commercial name                          : Dolby Digital Plus

Codec ID                                 : A_EAC3

Duration                                 : 1 h 34 min

Bit rate mode                            : Constant

Bit rate                                 : 224 kb/s

Channel(s)                               : 2 channels

Channel layout                           : L R

Sampling rate                            : 48.0 kHz

Frame rate                               : 31.250 FPS (1536 SPF)

Compression mode                         : Lossy

Stream size                              : 151 MiB (3%)

Language                                 : Russian

Service kind                             : Complete Main

Default                                  : Yes

Forced                                   : No



Text

ID                                       : 2

Format                                   : UTF-8

Codec ID                                 : S_TEXT/UTF8

Codec ID/Info                            : UTF-8 Plain Text

Duration                                 : 1 h 27 min

Bit rate                                 : 34 b/s

Count of elements                        : 792

Stream size                              : 22.2 KiB (0%)

Title                                    : SDH

Language                                 : English

Default                                  : No

Forced                                   : No


悠悠MP4_MP4电影下载_切尔卡瑟 Cherkasy.2019.RUSSIAN.ENSUBBED.1080p.AMZN.WEBRip.DDP2.0.x264-TEPES 5.81GB悠悠MP4_MP4电影下载_切尔卡瑟 Cherkasy.2019.RUSSIAN.ENSUBBED.1080p.AMZN.WEBRip.DDP2.0.x264-TEPES 5.81GB悠悠MP4_MP4电影下载_切尔卡瑟 Cherkasy.2019.RUSSIAN.ENSUBBED.1080p.AMZN.WEBRip.DDP2.0.x264-TEPES 5.81GB

                                                                                           

提示:如迅雷下载提示"任务出错"、"因版权无法下载",请尝试【迅雷5】
上传的附件:
最新回复 (0)
返回
本站所有资源均收集自互联网,没有提供影片资源存储, 也未参与录制、上传,若本站收录的资源无意侵犯了您的权益, 请联系邮箱:gogoimgs#gmail.com(#=@)