[2020] [欧美] [剧情] [WEB-1080P] 云上情歌 Clouds.2020.1080p.DSNP.WEBRip.DDP5.1.x264-PHOENIX 7.39GB

uump4 11天前 147

悠悠MP4_MP4电影下载_云上情歌 Clouds.2020.1080p.DSNP.WEBRip.DDP5.1.x264-PHOENIX 7.39GB
悠悠MP4_MP4电影下载_云上情歌 Clouds.2020.1080p.DSNP.WEBRip.DDP5.1.x264-PHOENIX 7.39GB

◎译  名 云上情歌
◎片  名 Clouds
◎年  代 2020
◎产  地 美国
◎类  别 剧情
◎语  言 英语
◎上映日期 2020-10-16(美国)
◎IMDb评分  9.2/10 from 20 users
◎IMDb链接  https://www.imdb.com/title/tt6473066
◎豆瓣评分 0/10 from 0 users
◎豆瓣链接 https://movie.douban.com/subject/34967933/
◎导  演 贾斯汀·贝尔杜尼 Justin Baldoni
◎编  剧 卡拉·霍顿 Kara Holden / Rudy La Scala
◎主  演 迪兰·埃弗雷特 Dylan Everett
       塞布丽娜·卡彭特 Sabrina Carpenter
       内芙·坎贝尔 Neve Campbell
       汤姆·艾弗瑞特·斯科特 Tom Everett Scott
       里尔·莱尔·哈瓦瑞 Lil Rel Howery
       麦迪森·伊瑟曼 Madison Iseman
       Vivien Endicott Douglas
       Summer H. Howell


◎标  签 剧情 | RyanTedder | 2020 | 美国 | OneRepublic | 美国电影 | 改编

◎简  介  

  基于真实故事,美国男孩扎克·索比赫14岁被诊断患有骨肉瘤(18岁去世),多次手术和化疗并未遏制癌症发展,在得知自己只剩几个月寿命后,他创作了《云》这首歌,感谢自己身边的人和所经历的一切,乐观面对。


Video

ID                                       : 1

Format                                   : AVC

Format/Info                              : Advanced Video Codec

Format profile                           : High@L4

Format settings                          : CABAC / 4 Ref Frames

Format settings, CABAC                   : Yes

Format settings, Reference frames        : 4 frames

Codec ID                                 : V_MPEG4/ISO/AVC

Duration                                 : 2 h 0 min

Bit rate mode                            : Variable

Bit rate                                 : 8 481 kb/s

Maximum bit rate                         : 12.7 Mb/s

Width                                    : 1 920 pixels

Height                                   : 1 080 pixels

Display aspect ratio                     : 16:9

Frame rate mode                          : Constant

Frame rate                               : 23.976 (24000/1001/34539) FPS

Color space                              : YUV

Chroma subsampling                       : 4:2:0

Bit depth                                : 8 bits

Scan type                                : Progressive

Bits/(Pixel*Frame)                       : 0.171

Stream size                              : 7.17 GiB (97%)

Language                                 : English

Default                                  : Yes

Forced                                   : No

Color range                              : Limited

Color primaries                          : BT.709

Transfer characteristics                 : BT.709

Matrix coefficients                      : BT.709



Audio

ID                                       : 2

Format                                   : E-AC-3

Format/Info                              : Enhanced AC-3

Commercial name                          : Dolby Digital Plus

Codec ID                                 : A_EAC3

Duration                                 : 2 h 0 min

Bit rate mode                            : Constant

Bit rate                                 : 256 kb/s

Channel(s)                               : 6 channels

Channel layout                           : L R C LFE Ls Rs

Sampling rate                            : 48.0 kHz

Frame rate                               : 31.250 FPS (1536 SPF)

Compression mode                         : Lossy

Stream size                              : 222 MiB (3%)

Title                                    : English

Language                                 : English

Service kind                             : Complete Main

Default                                  : Yes

Forced                                   : No



Text #1

ID                                       : 3

Format                                   : UTF-8

Codec ID                                 : S_TEXT/UTF8

Codec ID/Info                            : UTF-8 Plain Text

Duration                                 : 1 h 58 min

Bit rate                                 : 67 b/s

Count of elements                        : 1684

Stream size                              : 58.3 KiB (0%)

Title                                    : English

Language                                 : English

Default                                  : Yes

Forced                                   : No



Text #2

ID                                       : 4

Format                                   : UTF-8

Codec ID                                 : S_TEXT/UTF8

Codec ID/Info                            : UTF-8 Plain Text

Duration                                 : 2 h 0 min

Bit rate                                 : 57 b/s

Count of elements                        : 1439

Stream size                              : 50.6 KiB (0%)

Title                                    : Danish

Language                                 : Danish

Default                                  : No

Forced                                   : No



Text #3

ID                                       : 5

Format                                   : UTF-8

Codec ID                                 : S_TEXT/UTF8

Codec ID/Info                            : UTF-8 Plain Text

Duration                                 : 2 h 0 min

Bit rate                                 : 8 b/s

Count of elements                        : 181

Stream size                              : 7.16 KiB (0%)

Title                                    : German

Language                                 : German

Default                                  : No

Forced                                   : No



Text #4

ID                                       : 6

Format                                   : UTF-8

Codec ID                                 : S_TEXT/UTF8

Codec ID/Info                            : UTF-8 Plain Text

Duration                                 : 2 h 0 min

Bit rate                                 : 53 b/s

Count of elements                        : 1432

Stream size                              : 47.2 KiB (0%)

Title                                    : German

Language                                 : German

Default                                  : No

Forced                                   : No



Text #5

ID                                       : 7

Format                                   : UTF-8

Codec ID                                 : S_TEXT/UTF8

Codec ID/Info                            : UTF-8 Plain Text

Duration                                 : 2 h 0 min

Bit rate                                 : 50 b/s

Count of elements                        : 1341

Stream size                              : 44.9 KiB (0%)

Title                                    : Spanish

Language                                 : Spanish

Default                                  : No

Forced                                   : No



Text #6

ID                                       : 8

Format                                   : UTF-8

Codec ID                                 : S_TEXT/UTF8

Codec ID/Info                            : UTF-8 Plain Text

Duration                                 : 2 h 0 min

Bit rate                                 : 7 b/s

Count of elements                        : 183

Stream size                              : 6.22 KiB (0%)

Title                                    : Spanish

Language                                 : Spanish

Default                                  : No

Forced                                   : No



Text #7

ID                                       : 9

Format                                   : UTF-8

Codec ID                                 : S_TEXT/UTF8

Codec ID/Info                            : UTF-8 Plain Text

Duration                                 : 2 h 0 min

Bit rate                                 : 52 b/s

Count of elements                        : 1381

Stream size                              : 46.6 KiB (0%)

Title                                    : Spanish

Language                                 : Spanish

Default                                  : No

Forced                                   : No



Text #8

ID                                       : 10

Format                                   : UTF-8

Codec ID                                 : S_TEXT/UTF8

Codec ID/Info                            : UTF-8 Plain Text

Duration                                 : 2 h 0 min

Bit rate                                 : 52 b/s

Count of elements                        : 1436

Stream size                              : 46.1 KiB (0%)

Title                                    : Finnish

Language                                 : Finnish

Default                                  : No

Forced                                   : No



Text #9

ID                                       : 11

Format                                   : UTF-8

Codec ID                                 : S_TEXT/UTF8

Codec ID/Info                            : UTF-8 Plain Text

Duration                                 : 2 h 0 min

Bit rate                                 : 7 b/s

Count of elements                        : 183

Stream size                              : 6.44 KiB (0%)

Title                                    : French

Language                                 : French

Default                                  : No

Forced                                   : No



Text #10

ID                                       : 12

Format                                   : UTF-8

Codec ID                                 : S_TEXT/UTF8

Codec ID/Info                            : UTF-8 Plain Text

Duration                                 : 2 h 0 min

Bit rate                                 : 50 b/s

Count of elements                        : 1430

Stream size                              : 44.5 KiB (0%)

Title                                    : French

Language                                 : French

Default                                  : No

Forced                                   : No



Text #11

ID                                       : 13

Format                                   : UTF-8

Codec ID                                 : S_TEXT/UTF8

Codec ID/Info                            : UTF-8 Plain Text

Duration                                 : 2 h 0 min

Bit rate                                 : 7 b/s

Count of elements                        : 186

Stream size                              : 6.46 KiB (0%)

Title                                    : Italian

Language                                 : Italian

Default                                  : No

Forced                                   : No



Text #12

ID                                       : 14

Format                                   : UTF-8

Codec ID                                 : S_TEXT/UTF8

Codec ID/Info                            : UTF-8 Plain Text

Duration                                 : 2 h 0 min

Bit rate                                 : 49 b/s

Count of elements                        : 1375

Stream size                              : 43.7 KiB (0%)

Title                                    : Italian

Language                                 : Italian

Default                                  : No

Forced                                   : No



Text #13

ID                                       : 15

Format                                   : UTF-8

Codec ID                                 : S_TEXT/UTF8

Codec ID/Info                            : UTF-8 Plain Text

Duration                                 : 2 h 0 min

Bit rate                                 : 44 b/s

Count of elements                        : 1223

Stream size                              : 39.0 KiB (0%)

Title                                    : Dutch

Language                                 : Dutch

Default                                  : No

Forced                                   : No



Text #14

ID                                       : 16

Format                                   : UTF-8

Codec ID                                 : S_TEXT/UTF8

Codec ID/Info                            : UTF-8 Plain Text

Duration                                 : 2 h 0 min

Bit rate                                 : 6 b/s

Count of elements                        : 177

Stream size                              : 6.14 KiB (0%)

Title                                    : Dutch

Language                                 : Dutch

Default                                  : No

Forced                                   : No



Text #15

ID                                       : 17

Format                                   : UTF-8

Codec ID                                 : S_TEXT/UTF8

Codec ID/Info                            : UTF-8 Plain Text

Duration                                 : 2 h 0 min

Bit rate                                 : 52 b/s

Count of elements                        : 1436

Stream size                              : 46.4 KiB (0%)

Title                                    : Norwegian

Language                                 : Norwegian

Default                                  : No

Forced                                   : No



Text #16

ID                                       : 18

Format                                   : UTF-8

Codec ID                                 : S_TEXT/UTF8

Codec ID/Info                            : UTF-8 Plain Text

Duration                                 : 2 h 0 min

Bit rate                                 : 49 b/s

Count of elements                        : 1438

Stream size                              : 43.8 KiB (0%)

Title                                    : Polish

Language                                 : Polish

Default                                  : No

Forced                                   : No



Text #17

ID                                       : 19

Format                                   : UTF-8

Codec ID                                 : S_TEXT/UTF8

Codec ID/Info                            : UTF-8 Plain Text

Duration                                 : 2 h 0 min

Bit rate                                 : 50 b/s

Count of elements                        : 1397

Stream size                              : 45.0 KiB (0%)

Title                                    : Portuguese

Language                                 : Portuguese

Default                                  : No

Forced                                   : No



Text #18

ID                                       : 20

Format                                   : UTF-8

Codec ID                                 : S_TEXT/UTF8

Codec ID/Info                            : UTF-8 Plain Text

Duration                                 : 2 h 0 min

Bit rate                                 : 51 b/s

Count of elements                        : 1408

Stream size                              : 45.3 KiB (0%)

Title                                    : Portuguese

Language                                 : Portuguese

Default                                  : No

Forced                                   : No



Text #19

ID                                       : 21

Format                                   : UTF-8

Codec ID                                 : S_TEXT/UTF8

Codec ID/Info                            : UTF-8 Plain Text

Duration                                 : 2 h 0 min

Bit rate                                 : 6 b/s

Count of elements                        : 180

Stream size                              : 6.15 KiB (0%)

Title                                    : Portuguese

Language                                 : Portuguese

Default                                  : No

Forced                                   : No



Text #20

ID                                       : 22

Format                                   : UTF-8

Codec ID                                 : S_TEXT/UTF8

Codec ID/Info                            : UTF-8 Plain Text

Duration                                 : 2 h 0 min

Bit rate                                 : 55 b/s

Count of elements                        : 1440

Stream size                              : 49.2 KiB (0%)

Title                                    : Swedish

Language                                 : Swedish

Default                                  : No

Forced                                   : No


悠悠MP4_MP4电影下载_云上情歌 Clouds.2020.1080p.DSNP.WEBRip.DDP5.1.x264-PHOENIX 7.39GB悠悠MP4_MP4电影下载_云上情歌 Clouds.2020.1080p.DSNP.WEBRip.DDP5.1.x264-PHOENIX 7.39GB悠悠MP4_MP4电影下载_云上情歌 Clouds.2020.1080p.DSNP.WEBRip.DDP5.1.x264-PHOENIX 7.39GB

                                                                                           

提示:如迅雷下载提示"任务出错"、"因版权无法下载",请尝试【迅雷5】
上传的附件:
最新回复 (0)
返回
本站所有资源均收集自互联网,没有提供影片资源存储, 也未参与录制、上传,若本站收录的资源无意侵犯了您的权益, 请联系邮箱:gogoimgs#gmail.com(#=@)