[2019] [其他] [剧情] [WEB-720P] 驯鹰者的崛起/上升的鹰 The.Rising.Hawk.2019.720p.AMZN.WEBRip.DDP5.1.x264-NTG 4.79GB

uump4 3天前 126

悠悠MP4_MP4电影下载_驯鹰者的崛起/上升的鹰 The.Rising.Hawk.2019.720p.AMZN.WEBRip.DDP5.1.x264-NTG 4.79GB
悠悠MP4_MP4电影下载_驯鹰者的崛起/上升的鹰 The.Rising.Hawk.2019.720p.AMZN.WEBRip.DDP5.1.x264-NTG 4.79GB

◎译  名 驯鹰者的崛起 / Zahar Berkut / Захар Беркут / 上升的鹰
◎片  名 The Rising Hawk
◎年  代 2019
◎产  地 乌克兰 / 美国
◎类  别 剧情 / 动作 / 历史
◎语  言 乌克兰语
◎上映日期 2019-10-10(乌克兰)
◎IMDb评分  5.9/10 from 2116 users
◎IMDb链接  https://www.imdb.com/title/tt7439064
◎豆瓣评分 6.2/10 from 130 users
◎豆瓣链接 https://movie.douban.com/subject/30304560/
◎片  长 135分钟
◎导  演 阿希姆特·塞塔布拉耶夫 Akhtem Seitablaev / 约翰·韦恩 John Wynn
◎编  剧 里奇·罗纳特 Rich Ronat / 奥列格·马拉姆兹 Yaroslav Voytseshek
◎主  演 罗伯特·帕特里克 Robert Patrick
       帕皮·德雷顿 Poppy Drayton
       汤米·弗拉纳根 Tommy Flanagan
       艾莉森·杜迪 Alison Doody
       亚历克斯·马克尼科尔 Alex MacNicoll
       洛奇.迈尔斯 Rocky Myers
       奥利弗·特雷韦纳 Oliver Trevena
       阿琳娜·科瓦连科 Alina Kovalenko


◎标  签 蒙古 | 战争 | 乌克兰 | 历史 | 中世纪 | 2019 | 美国 | 青春

◎简  介  

  1241年,成吉思汗的儿子们率领的蒙古大军西征,所到之处生灵涂炭。当他们抵达到达喀尔巴阡山脉时,当地猎人贝尔库特兄弟秘密进入营地蒙古并释放了被挟持人质。愤怒的蒙古将军决定采取报复措施,摧毁喀尔巴阡当地的居民定居点。当地人中的一个叛徒告诉蒙古人山里的秘密通道,但贝尔库特兄弟领导的一小群山地猎人有自己的计划来阻止蒙古人的袭击。根据伊凡·法兰科的中篇小说《扎克哈尔·伯库特》改编


Video

ID                                       : 1

Format                                   : AVC

Format/Info                              : Advanced Video Codec

Format profile                           : High@L3.1

Format settings                          : CABAC / 4 Ref Frames

Format settings, CABAC                   : Yes

Format settings, Reference frames        : 4 frames

Codec ID                                 : V_MPEG4/ISO/AVC

Duration                                 : 2 h 5 min

Bit rate mode                            : Constant

Bit rate                                 : 4 847 kb/s

Nominal bit rate                         : 6 000 kb/s

Width                                    : 1 248 pixels

Height                                   : 520 pixels

Display aspect ratio                     : 2.40:1

Frame rate mode                          : Constant

Frame rate                               : 24.000 FPS

Color space                              : YUV

Chroma subsampling                       : 4:2:0

Bit depth                                : 8 bits

Scan type                                : Progressive

Bits/(Pixel*Frame)                       : 0.311

Stream size                              : 4.23 GiB (88%)

Default                                  : Yes

Forced                                   : No

Color range                              : Limited

Color primaries                          : BT.709

Transfer characteristics                 : BT.709

Matrix coefficients                      : BT.709



Audio

ID                                       : 2

Format                                   : E-AC-3

Format/Info                              : Enhanced AC-3

Commercial name                          : Dolby Digital Plus

Codec ID                                 : A_EAC3

Duration                                 : 2 h 5 min

Bit rate mode                            : Constant

Bit rate                                 : 640 kb/s

Channel(s)                               : 6 channels

Channel layout                           : L R C LFE Ls Rs

Sampling rate                            : 48.0 kHz

Frame rate                               : 31.250 FPS (1536 SPF)

Compression mode                         : Lossy

Stream size                              : 572 MiB (12%)

Language                                 : English

Service kind                             : Complete Main

Default                                  : Yes

Forced                                   : No



Text

ID                                       : 3

Format                                   : UTF-8

Codec ID                                 : S_TEXT/UTF8

Codec ID/Info                            : UTF-8 Plain Text

Duration                                 : 2 h 3 min

Bit rate                                 : 26 b/s

Count of elements                        : 1102

Stream size                              : 24.2 KiB (0%)

Title                                    : SDH

Language                                 : English

Default                                  : No

Forced                                   : No


悠悠MP4_MP4电影下载_驯鹰者的崛起/上升的鹰 The.Rising.Hawk.2019.720p.AMZN.WEBRip.DDP5.1.x264-NTG 4.79GB悠悠MP4_MP4电影下载_驯鹰者的崛起/上升的鹰 The.Rising.Hawk.2019.720p.AMZN.WEBRip.DDP5.1.x264-NTG 4.79GB悠悠MP4_MP4电影下载_驯鹰者的崛起/上升的鹰 The.Rising.Hawk.2019.720p.AMZN.WEBRip.DDP5.1.x264-NTG 4.79GB

                                                                                           

提示:如迅雷下载提示"任务出错"、"因版权无法下载",请尝试【迅雷5】
上传的附件:
最新回复 (0)
返回
本站所有资源均收集自互联网,没有提供影片资源存储, 也未参与录制、上传,若本站收录的资源无意侵犯了您的权益, 请联系邮箱:gogoimgs#gmail.com(#=@)