[2020] [欧美] [剧情] [BD-1080P] 割喉市 Cut.Throat.City.2020.1080p.BluRay.x264.DTS-HD.MA.5.1-FGT 11.93GB

uump4 9天前 119

悠悠MP4_MP4电影下载_割喉市 Cut.Throat.City.2020.1080p.BluRay.x264.DTS-HD.MA.5.1-FGT 11.93GB
悠悠MP4_MP4电影下载_割喉市 Cut.Throat.City.2020.1080p.BluRay.x264.DTS-HD.MA.5.1-FGT 11.93GB

◎译  名 割喉市
◎片  名 Cut Throat City
◎年  代 2020
◎产  地 美国
◎类  别 剧情 / 动作 / 惊悚 / 犯罪
◎语  言 英语
◎上映日期 2020-08-21(美国)
◎IMDb评分  4.5/10 from 214 users
◎IMDb链接  https://www.imdb.com/title/tt3547306
◎豆瓣评分 0/10 from 0 users
◎豆瓣链接 https://movie.douban.com/subject/27605490/
◎片  长 132分钟
◎导  演 罗伯特·菲茨杰拉德·迪格斯 RZA
◎主  演 艾莎·冈萨雷斯 Eiza González
       伊桑·霍克 Ethan Hawke
       沙梅克·摩尔 Shameik Moore
       卡特琳娜·格兰厄姆 Katerina Graham
       韦斯利·斯奈普斯 Wesley Snipes
       基恩·约翰逊 Keean Johnson
       泰伦斯·霍华德 Terrence Howard
       乔·大卫·摩尔  Joel David Moore
       艾赛亚·华盛顿 Isaiah Washington
       T.I.
       丹泽尔·惠特克 Denzel Whitaker
       萨姆·戴利 Sam Daly
       德米特里厄斯·西普 Demetrius Shipp Jr.
       罗布·摩根 Rob Morgan
       托马斯·弗兰西斯·墨菲 Thomas Francis Murphy
       泰伦·伍德利 Tyron Woodley
       多米尼克·杜维尔 Dominique DuVernay
       托尼·查普曼·斯蒂尔 Toney Chapman Steele


◎标  签 美国 | 犯罪 | 美国电影 | 惊悚 | 动作 | RZA | 美影 | 2019

◎简  介  

  本片讲述卡特里娜飓风期间,在美国新奥尔良州的第九区低地发生的一宗抢劫案。


Video

ID                                       : 1

Format                                   : AVC

Format/Info                              : Advanced Video Codec

Format profile                           : High@L4.1

Format settings                          : CABAC / 4 Ref Frames

Format settings, CABAC                   : Yes

Format settings, Reference frames        : 4 frames

Codec ID                                 : V_MPEG4/ISO/AVC

Duration                                 : 2 h 3 min

Bit rate                                 : 11.5 Mb/s

Width                                    : 1 920 pixels

Height                                   : 800 pixels

Display aspect ratio                     : 2.40:1

Frame rate mode                          : Constant

Frame rate                               : 23.976 (24000/1001/34539) FPS

Color space                              : YUV

Chroma subsampling                       : 4:2:0

Bit depth                                : 8 bits

Scan type                                : Progressive

Bits/(Pixel*Frame)                       : 0.312

Stream size                              : 9.91 GiB (83%)

Title                                    : Cut.Throat.City.2020.1080p.BluRay.x264.DTS-HD.MA.5.1-FGT

Writing library                          : x264 core 148 r2795M aaa9aa8

Encoding settings                        : cabac=1 / ref=4 / deblock=1:-2:-2 / analyse=0x3:0x113 / me=umh / subme=9 / psy=1 / psy_rd=1.00:0.15 / mixed_ref=1 / me_range=16 / chroma_me=1 / trellis=2 / 8x8dct=1 / cqm=0 / deadzone=21,11 / fast_pskip=1 / chroma_qp_offset=-3 / threads=72 / lookahead_threads=3 / sliced_threads=0 / nr=0 / decimate=1 / interlaced=0 / bluray_compat=0 / constrained_intra=0 / bframes=3 / b_pyramid=2 / b_adapt=1 / b_bias=0 / direct=3 / weightb=1 / open_gop=0 / weightp=2 / keyint=250 / keyint_min=25 / scenecut=40 / intra_refresh=0 / rc_lookahead=50 / rc=2pass / mbtree=1 / bitrate=11500 / ratetol=1.0 / qcomp=0.60 / qpmin=0 / qpmax=69 / qpstep=4 / cplxblur=20.0 / qblur=0.5 / vbv_maxrate=31250 / vbv_bufsize=31250 / nal_hrd=none / filler=0 / ip_ratio=1.40 / aq=1:1.00

Default                                  : Yes

Forced                                   : No



Audio

ID                                       : 2

Format                                   : DTS XLL

Format/Info                              : Digital Theater Systems

Commercial name                          : DTS-HD Master Audio

Codec ID                                 : A_DTS

Duration                                 : 2 h 3 min

Bit rate mode                            : Variable

Bit rate                                 : 2 331 kb/s

Channel(s)                               : 6 channels

Channel layout                           : C L R Ls Rs LFE

Sampling rate                            : 48.0 kHz

Frame rate                               : 93.750 FPS (512 SPF)

Bit depth                                : 16 bits

Compression mode                         : Lossless

Stream size                              : 2.01 GiB (17%)

Title                                    : Cut.Throat.City.2020.1080p.BluRay.x264.DTS-HD.MA.5.1-FGT

Language                                 : English

Default                                  : Yes

Forced                                   : No



Text #1

ID                                       : 3

Format                                   : UTF-8

Codec ID                                 : S_TEXT/UTF8

Codec ID/Info                            : UTF-8 Plain Text

Duration                                 : 2 h 1 min

Bit rate                                 : 60 b/s

Count of elements                        : 1784

Stream size                              : 53.6 KiB (0%)

Title                                    : English-SRT

Language                                 : English

Default                                  : Yes

Forced                                   : No



Text #2

ID                                       : 4

Format                                   : PGS

Muxing mode                              : zlib

Codec ID                                 : S_HDMV/PGS

Codec ID/Info                            : Picture based subtitle format used on BDs/HD-DVDs

Duration                                 : 2 h 1 min

Bit rate                                 : 39.3 kb/s

Count of elements                        : 2950

Stream size                              : 34.0 MiB (0%)

Title                                    : English-PGS

Language                                 : English

Default                                  : No

Forced                                   : No



Menu

00:00:00.000                             : en:Chapter 1

00:08:01.398                             : en:Chapter 2

00:14:04.093                             : en:Chapter 3

00:21:40.799                             : en:Chapter 4

00:29:35.273                             : en:Chapter 5

00:40:03.401                             : en:Chapter 6

00:52:49.792                             : en:Chapter 7

01:00:52.107                             : en:Chapter 8

01:08:44.620                             : en:Chapter 9

01:18:30.080                             : en:Chapter 10

01:27:48.513                             : en:Chapter 11

01:35:26.054                             : en:Chapter 12

01:53:54.327                             : en:Chapter 13


悠悠MP4_MP4电影下载_割喉市 Cut.Throat.City.2020.1080p.BluRay.x264.DTS-HD.MA.5.1-FGT 11.93GB悠悠MP4_MP4电影下载_割喉市 Cut.Throat.City.2020.1080p.BluRay.x264.DTS-HD.MA.5.1-FGT 11.93GB悠悠MP4_MP4电影下载_割喉市 Cut.Throat.City.2020.1080p.BluRay.x264.DTS-HD.MA.5.1-FGT 11.93GB

                                                                                           

提示:如迅雷下载提示"任务出错"、"因版权无法下载",请尝试【迅雷5】
上传的附件:
最新回复 (0)
返回
本站所有资源均收集自互联网,没有提供影片资源存储, 也未参与录制、上传,若本站收录的资源无意侵犯了您的权益, 请联系邮箱:gogoimgs#gmail.com(#=@)