[2020] [欧美] [恐怖] [WEB-1080P] 恶魔森林 Yield.2020.1080p.WEBRip.AAC2.0.x264-BobDobbs 2.72GB

uump4 20天前 234

悠悠MP4_MP4电影下载_恶魔森林 Yield.2020.1080p.WEBRip.AAC2.0.x264-BobDobbs 2.72GB
悠悠MP4_MP4电影下载_恶魔森林 Yield.2020.1080p.WEBRip.AAC2.0.x264-BobDobbs 2.72GB

◎译  名 恶魔森林
◎片  名 Yield
◎年  代 2020
◎产  地 美国
◎类  别 恐怖
◎语  言 英语
◎上映日期 2020-05-29(美国)
◎IMDb链接  https://www.imdb.com/title/tt8488102
◎豆瓣评分 0/10 from 0 users
◎豆瓣链接 https://movie.douban.com/subject/35212262/
◎片  长 77分钟
◎主  演 西德妮·斯威尼 Sydney Sweeney
       尼尔·杨 Neil Young


◎简  介  

  A young couple on vacation who decides to go hiking in a national forest. It's only after they are inside that the couple begins to realize something is very wrong inside that forest.

  谷歌为您翻译:
  一对年轻夫妇在度假决定在国家森林里远足的人。直到他们进入屋子里,夫妻俩才开始意识到那片森林里有什么不对劲。

  腾讯为您翻译:
  一对正在度假的年轻夫妇决定去国家森林徒步旅行。只有在他们进入森林后,这对夫妇才开始意识到森林里有很不对劲的地方。

  本站为您翻译:
  一对度假的年轻夫妇决定去国家森林远足。只有在他们进入森林之后,这对夫妇才开始意识到森林里有些事情是非常不对劲的。



Video

ID                                       : 1

Format                                   : AVC

Format/Info                              : Advanced Video Codec

Format profile                           : High@L4

Format settings                          : CABAC / 5 Ref Frames

Format settings, CABAC                   : Yes

Format settings, Reference frames        : 5 frames

Codec ID                                 : V_MPEG4/ISO/AVC

Duration                                 : 1 h 17 min

Bit rate                                 : 4 778 kb/s

Width                                    : 1 920 pixels

Height                                   : 1 080 pixels

Display aspect ratio                     : 16:9

Frame rate mode                          : Constant

Frame rate                               : 30.000 FPS

Color space                              : YUV

Chroma subsampling                       : 4:2:0

Bit depth                                : 8 bits

Scan type                                : Progressive

Bits/(Pixel*Frame)                       : 0.077

Stream size                              : 2.58 GiB (95%)

Writing library                          : x264 core 161 r10 db0d417

Encoding settings                        : cabac=1 / ref=5 / deblock=1:0:0 / analyse=0x3:0x113 / me=hex / subme=8 / psy=1 / psy_rd=1.00:0.00 / mixed_ref=1 / me_range=16 / chroma_me=1 / trellis=2 / 8x8dct=1 / cqm=0 / deadzone=21,11 / fast_pskip=1 / chroma_qp_offset=-2 / threads=34 / lookahead_threads=5 / sliced_threads=0 / nr=0 / decimate=1 / interlaced=0 / bluray_compat=0 / stitchable=1 / constrained_intra=0 / bframes=3 / b_pyramid=2 / b_adapt=2 / b_bias=0 / direct=3 / weightb=1 / open_gop=0 / weightp=2 / keyint=infinite / keyint_min=30 / scenecut=40 / intra_refresh=0 / rc_lookahead=50 / rc=crf / mbtree=1 / crf=20.0 / qcomp=0.60 / qpmin=5 / qpmax=69 / qpstep=4 / vbv_maxrate=5500 / vbv_bufsize=15000 / crf_max=0.0 / nal_hrd=none / filler=0 / ip_ratio=1.40 / aq=1:1.00

Default                                  : Yes

Forced                                   : No

Color range                              : Limited

Color primaries                          : BT.709

Transfer characteristics                 : BT.709

Matrix coefficients                      : BT.709



Audio

ID                                       : 2

Format                                   : AAC LC

Format/Info                              : Advanced Audio Codec Low Complexity

Codec ID                                 : A_AAC-2

Duration                                 : 1 h 17 min

Bit rate                                 : 253 kb/s

Channel(s)                               : 2 channels

Channel layout                           : L R

Sampling rate                            : 48.0 kHz

Frame rate                               : 46.875 FPS (1024 SPF)

Compression mode                         : Lossy

Stream size                              : 140 MiB (5%)

Default                                  : Yes

Forced                                   : No


悠悠MP4_MP4电影下载_恶魔森林 Yield.2020.1080p.WEBRip.AAC2.0.x264-BobDobbs 2.72GB悠悠MP4_MP4电影下载_恶魔森林 Yield.2020.1080p.WEBRip.AAC2.0.x264-BobDobbs 2.72GB悠悠MP4_MP4电影下载_恶魔森林 Yield.2020.1080p.WEBRip.AAC2.0.x264-BobDobbs 2.72GB

                                                                                           

提示:如迅雷下载提示"任务出错"、"因版权无法下载",请尝试【迅雷5】
上传的附件:
最新回复 (0)
返回
本站所有资源均收集自互联网,没有提供影片资源存储, 也未参与录制、上传,若本站收录的资源无意侵犯了您的权益, 请联系邮箱:gogoimgs#gmail.com(#=@)