[2017] [欧美] [剧情] [WEB-1080P] 坏小子的街巷/蜂巢少年 Dayveon.2017.1080p.AMZN.WEBRip.DD5.1.x264-NOGRP 4.04GB

uump4 21天前 139

悠悠MP4_MP4电影下载_坏小子的街巷/蜂巢少年 Dayveon.2017.1080p.AMZN.WEBRip.DD5.1.x264-NOGRP 4.04GB
悠悠MP4_MP4电影下载_坏小子的街巷/蜂巢少年 Dayveon.2017.1080p.AMZN.WEBRip.DD5.1.x264-NOGRP 4.04GB

◎译  名 坏小子的街巷 / 蜂巢少年(台)
◎片  名 Dayveon
◎年  代 2017
◎产  地 美国
◎类  别 剧情
◎语  言 英语
◎上映日期 2017-01-19(圣丹斯电影节)
◎IMDb评分  6.4/10 from 427 users
◎IMDb链接  https://www.imdb.com/title/tt6266218
◎豆瓣评分 0/10 from 0 users
◎豆瓣链接 https://movie.douban.com/subject/26849777/
◎片  长 75分钟
◎导  演 安曼·阿巴西 Amman Abbasi
◎编  剧 安曼·阿巴西 Amman Abbasi

◎标  签 2017 | 美國電影 | AmmanAbbasi | 美(加)国电影 | 美国电影 | 剧情 | festival_TFF | [4.0/5.0]

◎简  介  

  《坏小子的街巷》讲述的是一个13岁男孩(Devin Blackmon饰演)如何试着从哥哥去世的阴影中走出来的故事。主人公夹在关爱并照顾他的姐姐(Chasity Moore饰演)和向他提供归属感的街头帮派两种关系中挣扎,被迫做出纯真失落后艰难的抉择。

◎获奖情况  

  第33届圣丹斯电影节(2017)
  观众奖 未来创新奖(提名) 安曼·阿巴西

  第33届美国独立精神奖(2018)
  约翰·卡萨维茨奖(提名)
  值得关注新人奖(提名) 安曼·阿巴西


Video

ID                                       : 1

Format                                   : AVC

Format/Info                              : Advanced Video Codec

Format profile                           : High@L4

Format settings                          : CABAC / 4 Ref Frames

Format settings, CABAC                   : Yes

Format settings, Reference frames        : 4 frames

Codec ID                                 : V_MPEG4/ISO/AVC

Duration                                 : 1 h 15 min

Bit rate                                 : 6 985 kb/s

Width                                    : 1 440 pixels

Height                                   : 1 080 pixels

Display aspect ratio                     : 4:3

Frame rate mode                          : Constant

Frame rate                               : 23.976 (24000/1001/34539) FPS

Color space                              : YUV

Chroma subsampling                       : 4:2:0

Bit depth                                : 8 bits

Scan type                                : Progressive

Bits/(Pixel*Frame)                       : 0.187

Stream size                              : 3.70 GiB (92%)

Default                                  : Yes

Forced                                   : No

Color range                              : Limited

Color primaries                          : BT.709

Transfer characteristics                 : BT.709

Matrix coefficients                      : BT.709



Audio

ID                                       : 2

Format                                   : E-AC-3

Format/Info                              : Enhanced AC-3

Commercial name                          : Dolby Digital Plus

Codec ID                                 : A_EAC3

Duration                                 : 1 h 15 min

Bit rate mode                            : Constant

Bit rate                                 : 640 kb/s

Channel(s)                               : 6 channels

Channel layout                           : L R C LFE Ls Rs

Sampling rate                            : 48.0 kHz

Frame rate                               : 31.250 FPS (1536 SPF)

Compression mode                         : Lossy

Stream size                              : 347 MiB (8%)

Language                                 : English

Service kind                             : Complete Main

Default                                  : Yes

Forced                                   : No



Text

ID                                       : 3

Format                                   : UTF-8

Codec ID                                 : S_TEXT/UTF8

Codec ID/Info                            : UTF-8 Plain Text

Duration                                 : 1 h 14 min

Bit rate                                 : 43 b/s

Count of elements                        : 931

Stream size                              : 23.7 KiB (0%)

Language                                 : French

Default                                  : No

Forced                                   : No


悠悠MP4_MP4电影下载_坏小子的街巷/蜂巢少年 Dayveon.2017.1080p.AMZN.WEBRip.DD5.1.x264-NOGRP 4.04GB悠悠MP4_MP4电影下载_坏小子的街巷/蜂巢少年 Dayveon.2017.1080p.AMZN.WEBRip.DD5.1.x264-NOGRP 4.04GB悠悠MP4_MP4电影下载_坏小子的街巷/蜂巢少年 Dayveon.2017.1080p.AMZN.WEBRip.DD5.1.x264-NOGRP 4.04GB

                                                                                           

提示:如迅雷下载提示"任务出错"、"因版权无法下载",请尝试【迅雷5】
上传的附件:
最新回复 (0)
返回
本站所有资源均收集自互联网,没有提供影片资源存储, 也未参与录制、上传,若本站收录的资源无意侵犯了您的权益, 请联系邮箱:gogoimgs#gmail.com(#=@)