[2019] [其他] [其他] [WEB-1080P] 太空狗 Space.Dogs.2019.RUSSIAN.1080p.AMZN.WEBRip.DDP2.0.x264-TEPES 4.90GB

uump4 1月前 178

悠悠MP4_MP4电影下载_太空狗 Space.Dogs.2019.RUSSIAN.1080p.AMZN.WEBRip.DDP2.0.x264-TEPES 4.90GB
悠悠MP4_MP4电影下载_太空狗 Space.Dogs.2019.RUSSIAN.1080p.AMZN.WEBRip.DDP2.0.x264-TEPES 4.90GB

◎译  名 太空狗
◎片  名 Space Dogs
◎年  代 2019
◎产  地 奥地利 / 德国
◎类  别 纪录片
◎语  言 俄语
◎上映日期 2019-08-09(洛迦诺电影节)
◎IMDb评分  6.2/10 from 143 users
◎IMDb链接  https://www.imdb.com/title/tt10655714
◎豆瓣评分 0/10 from 0 users
◎豆瓣链接 https://movie.douban.com/subject/34614650/
◎片  长 91分钟
◎导  演 Elsa Kremser / Levin Peter
◎编  剧 Elsa Kremser / Levin Peter

◎标  签 纪录片 | 俄罗斯电影 | Levin_Peter | Elsa_Kremser | (电脑) | (2019) | 德國籍 | 影

◎简  介  

  暂无相关剧情介绍

◎获奖情况  

  第72届洛迦诺国际电影节(2019)
  当代电影人单元金豹奖(提名) Elsa Kremser / Levin Peter


Video

ID                                       : 1

Format                                   : AVC

Format/Info                              : Advanced Video Codec

Format profile                           : High@L4

Format settings                          : CABAC / 4 Ref Frames

Format settings, CABAC                   : Yes

Format settings, Reference frames        : 4 frames

Codec ID                                 : V_MPEG4/ISO/AVC

Duration                                 : 1 h 31 min

Bit rate mode                            : Constant

Bit rate                                 : 7 483 kb/s

Nominal bit rate                         : 10 000 kb/s

Width                                    : 1 920 pixels

Height                                   : 800 pixels

Display aspect ratio                     : 2.40:1

Frame rate mode                          : Constant

Frame rate                               : 25.000 FPS

Color space                              : YUV

Chroma subsampling                       : 4:2:0

Bit depth                                : 8 bits

Scan type                                : Progressive

Bits/(Pixel*Frame)                       : 0.195

Stream size                              : 4.76 GiB (97%)

Default                                  : Yes

Forced                                   : No

Color range                              : Limited

Color primaries                          : BT.709

Transfer characteristics                 : BT.709

Matrix coefficients                      : BT.709



Audio

ID                                       : 2

Format                                   : E-AC-3

Format/Info                              : Enhanced AC-3

Commercial name                          : Dolby Digital Plus

Codec ID                                 : A_EAC3

Duration                                 : 1 h 31 min

Bit rate mode                            : Constant

Bit rate                                 : 224 kb/s

Channel(s)                               : 2 channels

Channel layout                           : L R

Sampling rate                            : 48.0 kHz

Frame rate                               : 31.250 FPS (1536 SPF)

Compression mode                         : Lossy

Stream size                              : 146 MiB (3%)

Language                                 : Russian

Service kind                             : Complete Main

Default                                  : Yes

Forced                                   : No



Text #1

ID                                       : 3

Format                                   : UTF-8

Codec ID                                 : S_TEXT/UTF8

Codec ID/Info                            : UTF-8 Plain Text

Duration                                 : 1 h 23 min

Bit rate                                 : 9 b/s

Count of elements                        : 143

Stream size                              : 5.86 KiB (0%)

Language                                 : English

Default                                  : No

Forced                                   : No



Text #2

ID                                       : 4

Format                                   : UTF-8

Codec ID                                 : S_TEXT/UTF8

Codec ID/Info                            : UTF-8 Plain Text

Duration                                 : 1 h 23 min

Bit rate                                 : 9 b/s

Count of elements                        : 151

Stream size                              : 6.00 KiB (0%)

Title                                    : Espa?ol

Language                                 : Spanish

Default                                  : No

Forced                                   : No



Text #3

ID                                       : 5

Format                                   : UTF-8

Codec ID                                 : S_TEXT/UTF8

Codec ID/Info                            : UTF-8 Plain Text

Duration                                 : 1 h 23 min

Bit rate                                 : 10 b/s

Count of elements                        : 151

Stream size                              : 6.47 KiB (0%)

Language                                 : French

Default                                  : No

Forced                                   : No



Text #4

ID                                       : 6

Format                                   : UTF-8

Codec ID                                 : S_TEXT/UTF8

Codec ID/Info                            : UTF-8 Plain Text

Duration                                 : 1 h 23 min

Bit rate                                 : 9 b/s

Count of elements                        : 151

Stream size                              : 6.00 KiB (0%)

Language                                 : Italian

Default                                  : No

Forced                                   : No



Text #5

ID                                       : 7

Format                                   : UTF-8

Codec ID                                 : S_TEXT/UTF8

Codec ID/Info                            : UTF-8 Plain Text

Duration                                 : 1 h 23 min

Bit rate                                 : 9 b/s

Count of elements                        : 149

Stream size                              : 5.91 KiB (0%)

Title                                    : Português

Language                                 : Portuguese

Default                                  : No

Forced                                   : No



Text #6

ID                                       : 8

Format                                   : UTF-8

Codec ID                                 : S_TEXT/UTF8

Codec ID/Info                            : UTF-8 Plain Text

Duration                                 : 1 h 25 min

Bit rate                                 : 10 b/s

Count of elements                        : 146

Stream size                              : 6.59 KiB (0%)

Language                                 : Turkish

Default                                  : No

Forced                                   : No


悠悠MP4_MP4电影下载_太空狗 Space.Dogs.2019.RUSSIAN.1080p.AMZN.WEBRip.DDP2.0.x264-TEPES 4.90GB悠悠MP4_MP4电影下载_太空狗 Space.Dogs.2019.RUSSIAN.1080p.AMZN.WEBRip.DDP2.0.x264-TEPES 4.90GB悠悠MP4_MP4电影下载_太空狗 Space.Dogs.2019.RUSSIAN.1080p.AMZN.WEBRip.DDP2.0.x264-TEPES 4.90GB

                                                                                           

提示:如迅雷下载提示"任务出错"、"因版权无法下载",请尝试【迅雷5】
上传的附件:
最新回复 (0)
返回
本站所有资源均收集自互联网,没有提供影片资源存储, 也未参与录制、上传,若本站收录的资源无意侵犯了您的权益, 请联系邮箱:gogoimgs#gmail.com(#=@)