[2020] [欧美] [剧情] [WEB-1080P] 斯特拉斯堡1518 Strasbourg.1518.2020.1080p.WEBRip.x264-RARBG 199.15MB

uump4 1月前 263

悠悠MP4_MP4电影下载_斯特拉斯堡1518 Strasbourg.1518.2020.1080p.WEBRip.x264-RARBG 199.15MB
悠悠MP4_MP4电影下载_斯特拉斯堡1518 Strasbourg.1518.2020.1080p.WEBRip.x264-RARBG 199.15MB

◎译  名 斯特拉斯堡1518
◎片  名 Strasbourg 1518
◎年  代 2020
◎产  地 英国
◎类  别 剧情 / 短片 / 历史 / 战争
◎语  言 英语
◎上映日期 2020-07-20(英国)
◎IMDb评分  6.1/10 from 257 users
◎IMDb链接  https://www.imdb.com/title/tt12748016
◎豆瓣评分 0/10 from 0 users
◎豆瓣链接 https://movie.douban.com/subject/27094013/
◎片  长 10分钟
◎导  演 乔纳森·格雷泽 Jonathan Glazer
◎编  剧 乔纳森·格雷泽 Jonathan Glazer

◎标  签 短片 | 英国 | 2020 | 实验 | JonathanGlazer | 乔纳森·格雷泽 | BBC | 音乐

◎简  介  

  影片灵感来自于500多年前斯特拉斯堡市市民的一种无意识狂热。根据历史记载,一场“舞蹈瘟疫”占据了这座城市好几天,共有50到400人参与,其中一些人跳舞致死。虽然历史文献没有详细记载,但有人认为这可能是由食物中毒或压力引起的大规模歇斯底里的阵痛引起的。该片将于7月20日在BBC首播。


Video

ID                                       : 1

Format                                   : AVC

Format/Info                              : Advanced Video Codec

Format profile                           : High@L4.1

Format settings                          : CABAC / 4 Ref Frames

Format settings, CABAC                   : Yes

Format settings, Reference frames        : 4 frames

Codec ID                                 : avc1

Codec ID/Info                            : Advanced Video Coding

Duration                                 : 10 min 14 s

Bit rate                                 : 2 500 kb/s

Width                                    : 1 920 pixels

Height                                   : 1 080 pixels

Display aspect ratio                     : 16:9

Frame rate mode                          : Constant

Frame rate                               : 25.000 FPS

Color space                              : YUV

Chroma subsampling                       : 4:2:0

Bit depth                                : 8 bits

Scan type                                : Progressive

Bits/(Pixel*Frame)                       : 0.048

Stream size                              : 182 MiB (92%)

Writing library                          : x264 core 152 r2851M ba24899

Encoding settings                        : cabac=1 / ref=4 / deblock=1:-1:-1 / analyse=0x3:0x113 / me=umh / subme=9 / psy=1 / psy_rd=1.00:0.15 / mixed_ref=1 / me_range=24 / chroma_me=1 / trellis=2 / 8x8dct=1 / cqm=0 / deadzone=21,11 / fast_pskip=1 / chroma_qp_offset=-3 / threads=16 / lookahead_threads=4 / sliced_threads=0 / nr=0 / decimate=1 / interlaced=0 / bluray_compat=0 / constrained_intra=0 / bframes=3 / b_pyramid=2 / b_adapt=2 / b_bias=0 / direct=3 / weightb=1 / open_gop=0 / weightp=2 / keyint=250 / keyint_min=25 / scenecut=40 / intra_refresh=0 / rc_lookahead=50 / rc=2pass / mbtree=1 / bitrate=2500 / ratetol=1.0 / qcomp=0.60 / qpmin=0 / qpmax=69 / qpstep=4 / cplxblur=20.0 / qblur=0.5 / vbv_maxrate=31250 / vbv_bufsize=31250 / nal_hrd=none / filler=0 / ip_ratio=1.40 / aq=3:1.00

Encoded date                             : UTC 2020-09-18 05:16:22

Tagged date                              : UTC 2020-09-18 05:16:22

Codec configuration box                  : avcC



Audio

ID                                       : 2

Format                                   : AAC LC

Format/Info                              : Advanced Audio Codec Low Complexity

Codec ID                                 : mp4a-40-2

Duration                                 : 10 min 14 s

Duration_LastFrame                       : -11 ms

Bit rate mode                            : Constant

Bit rate                                 : 224 kb/s

Channel(s)                               : 2 channels

Channel layout                           : L R

Sampling rate                            : 48.0 kHz

Frame rate                               : 46.875 FPS (1024 SPF)

Compression mode                         : Lossy

Stream size                              : 16.4 MiB (8%)

Language                                 : English

Default                                  : Yes

Alternate group                          : 1

Encoded date                             : UTC 2020-09-18 05:16:22

Tagged date                              : UTC 2020-09-18 05:16:22


悠悠MP4_MP4电影下载_斯特拉斯堡1518 Strasbourg.1518.2020.1080p.WEBRip.x264-RARBG 199.15MB悠悠MP4_MP4电影下载_斯特拉斯堡1518 Strasbourg.1518.2020.1080p.WEBRip.x264-RARBG 199.15MB

                                                                                           

提示:如迅雷下载提示"任务出错"、"因版权无法下载",请尝试【迅雷5】
上传的附件:
最新回复 (0)
返回
本站所有资源均收集自互联网,没有提供影片资源存储, 也未参与录制、上传,若本站收录的资源无意侵犯了您的权益, 请联系邮箱:gogoimgs#gmail.com(#=@)