[更早] [其他] [喜剧] [WEB-1080P] 沙发上的心理医生/巴黎情人,纽约沙发 A.Couch.in.New.York.1996.1080p.AMZN.WEBRip.DDP2.0.x264-TEPES 6.76GB

uump4 1月前 139

悠悠MP4_MP4电影下载_沙发上的心理医生/巴黎情人,纽约沙发 A.Couch.in.New.York.1996.1080p.AMZN.WEBRip.DDP2.0.x264-TEPES 6.76GB
悠悠MP4_MP4电影下载_沙发上的心理医生/巴黎情人,纽约沙发 A.Couch.in.New.York.1996.1080p.AMZN.WEBRip.DDP2.0.x264-TEPES 6.76GB

◎译  名 沙发上的心理医生 / A Couch in New York / 巴黎情人,纽约沙发
◎片  名 Un divan à New York
◎年  代 1996
◎产  地 法国 / 德国 / 比利时
◎类  别 喜剧 / 爱情
◎语  言 英语 / 法语
◎上映日期 1996-02-21
◎IMDb评分  5.9/10 from 1951 users
◎IMDb链接  https://www.imdb.com/title/tt0118018
◎豆瓣评分 6.8/10 from 191 users
◎豆瓣链接 https://movie.douban.com/subject/1301680/
◎片  长 108 分钟
◎导  演 香特尔·阿克曼 Chantal Akerman
◎编  剧 香特尔·阿克曼 Chantal Akerman / 让-路易·伯努瓦 Jean-Louis Beno?t
◎主  演 朱丽叶·比诺什 Juliette Binoche
       威廉·赫特 William Hurt
       芭芭拉·加里克 Barbara Garrick
       保罗·吉尔福伊尔 Paul Guilfoyle
       安德莉·鲍恩 Andrea Bowen
       亨利·宾 Henry Bean
       Bruce Katzman
       Michael McCormick
       亚当·勒费弗 Adam LeFevre
       理查德·詹金斯 Richard Jenkins
       肯特·布劳德赫斯特 Kent Broadhurst


◎标  签 法国 | 沙发上的心理医生 | 心理 | 爱情 | 法国电影 | 茱丽叶·比诺什 | JulietteBinoche | Chantal_Akerman

◎简  介  

  一个是纽约拥有舒适大房子的事业成功的心理医生,一个是巴黎乱糟糟小屋里糊里糊涂却心地善良的舞蹈演员,他们都厌倦了各自的生活。一次偶然机会,他们交换了一下角色,世界有时就是浪漫的不可思议,爱情就这么自然地闯进了原本陌生的两个人的世界里。


Video

ID                                       : 1

Format                                   : AVC

Format/Info                              : Advanced Video Codec

Format profile                           : High@L4

Format settings                          : CABAC / 4 Ref Frames

Format settings, CABAC                   : Yes

Format settings, Reference frames        : 4 frames

Codec ID                                 : V_MPEG4/ISO/AVC

Duration                                 : 1 h 44 min

Bit rate mode                            : Constant

Bit rate                                 : 9 059 kb/s

Nominal bit rate                         : 10 000 kb/s

Width                                    : 1 920 pixels

Height                                   : 1 040 pixels

Display aspect ratio                     : 1.85:1

Frame rate mode                          : Constant

Frame rate                               : 25.000 FPS

Color space                              : YUV

Chroma subsampling                       : 4:2:0

Bit depth                                : 8 bits

Scan type                                : Progressive

Bits/(Pixel*Frame)                       : 0.181

Stream size                              : 6.60 GiB (98%)

Default                                  : Yes

Forced                                   : No

Color range                              : Limited

Color primaries                          : BT.709

Transfer characteristics                 : BT.709

Matrix coefficients                      : BT.709



Audio

ID                                       : 2

Format                                   : E-AC-3

Format/Info                              : Enhanced AC-3

Commercial name                          : Dolby Digital Plus

Codec ID                                 : A_EAC3

Duration                                 : 1 h 44 min

Bit rate mode                            : Constant

Bit rate                                 : 224 kb/s

Channel(s)                               : 2 channels

Channel layout                           : L R

Sampling rate                            : 48.0 kHz

Frame rate                               : 31.250 FPS (1536 SPF)

Compression mode                         : Lossy

Stream size                              : 167 MiB (2%)

Language                                 : English

Service kind                             : Complete Main

Default                                  : Yes

Forced                                   : No



Text #1

ID                                       : 3

Format                                   : UTF-8

Codec ID                                 : S_TEXT/UTF8

Codec ID/Info                            : UTF-8 Plain Text

Duration                                 : 1 h 38 min

Bit rate                                 : 54 b/s

Count of elements                        : 1280

Stream size                              : 39.1 KiB (0%)

Language                                 : English

Default                                  : No

Forced                                   : No



Text #2

ID                                       : 4

Format                                   : UTF-8

Codec ID                                 : S_TEXT/UTF8

Codec ID/Info                            : UTF-8 Plain Text

Duration                                 : 1 h 38 min

Bit rate                                 : 52 b/s

Count of elements                        : 1293

Stream size                              : 37.9 KiB (0%)

Language                                 : Italian

Default                                  : No

Forced                                   : No


悠悠MP4_MP4电影下载_沙发上的心理医生/巴黎情人,纽约沙发 A.Couch.in.New.York.1996.1080p.AMZN.WEBRip.DDP2.0.x264-TEPES 6.76GB悠悠MP4_MP4电影下载_沙发上的心理医生/巴黎情人,纽约沙发 A.Couch.in.New.York.1996.1080p.AMZN.WEBRip.DDP2.0.x264-TEPES 6.76GB悠悠MP4_MP4电影下载_沙发上的心理医生/巴黎情人,纽约沙发 A.Couch.in.New.York.1996.1080p.AMZN.WEBRip.DDP2.0.x264-TEPES 6.76GB

                                                                                           

提示:如迅雷下载提示"任务出错"、"因版权无法下载",请尝试【迅雷5】
上传的附件:
最新回复 (0)
返回
本站所有资源均收集自互联网,没有提供影片资源存储, 也未参与录制、上传,若本站收录的资源无意侵犯了您的权益, 请联系邮箱:gogoimgs#gmail.com(#=@)