[2018] [其他] [其他] [WEB-1080P] 七年前的五月 Seven.Years.in.May.2019.PORTUGUESE.1080p.WEBRip.x264-VXT 821.20MB

uump4 1月前 95

悠悠MP4_MP4电影下载_七年前的五月 Seven.Years.in.May.2019.PORTUGUESE.1080p.WEBRip.x264-VXT 821.20MB
悠悠MP4_MP4电影下载_七年前的五月 Seven.Years.in.May.2019.PORTUGUESE.1080p.WEBRip.x264-VXT 821.20MB

◎译  名 七年前的五月 / Seven Years in May
◎片  名 Sete anos em Maio
◎年  代 2018
◎产  地 巴西
◎类  别 短片
◎语  言 葡萄牙语
◎IMDb评分  7.2/10 from 70 users
◎IMDb链接  https://www.imdb.com/title/tt11327962
◎豆瓣评分 0/10 from 0 users
◎豆瓣链接 https://movie.douban.com/subject/33437226/
◎片  长 42分钟

◎标  签 巴西 | 短片 | 巴西电影 | mubi | Uchoa | P-BerlinE影评人周 | 2018

◎简  介  

  One night seven years ago, Rafael came home after work and discovered that people he did not know had come looking for him. He immediately fled, without looking back. From that moment on, his life changed, as if that night had never ended

  谷歌为您翻译:
  七年前的一个晚上,拉斐尔下班回家,发现他不认识的人来找他。他立即逃跑,没有回头。从那一刻起,他的生活改变了,仿佛那天晚上从未结束

  腾讯为您翻译:
  七年前的一个晚上,拉斐尔下班回家,发现他不认识的人来找他。他立即逃走,没有回头。从那一刻起,他的生活发生了变化,仿佛那一夜从未结束。

  本站为您翻译:
  七年前的一个晚上,拉斐尔下班回家,发现不认识的人来找他。他立刻逃走了,头也不回。从那一刻起,他的生活改变了,仿佛那个夜晚从未结束



Video

ID                                       : 1

Format                                   : AVC

Format/Info                              : Advanced Video Codec

Format profile                           : High@L4.1

Format settings                          : CABAC / 4 Ref Frames

Format settings, CABAC                   : Yes

Format settings, Reference frames        : 4 frames

Codec ID                                 : avc1

Codec ID/Info                            : Advanced Video Coding

Duration                                 : 42 min 3 s

Bit rate                                 : 2 500 kb/s

Width                                    : 1 920 pixels

Height                                   : 1 040 pixels

Display aspect ratio                     : 1.85:1

Frame rate mode                          : Constant

Frame rate                               : 24.000 FPS

Color space                              : YUV

Chroma subsampling                       : 4:2:0

Bit depth                                : 8 bits

Scan type                                : Progressive

Bits/(Pixel*Frame)                       : 0.052

Stream size                              : 752 MiB (92%)

Writing library                          : x264 core 152 r2851M ba24899

Encoding settings                        : cabac=1 / ref=4 / deblock=1:-1:-1 / analyse=0x3:0x113 / me=umh / subme=9 / psy=1 / psy_rd=1.00:0.15 / mixed_ref=1 / me_range=24 / chroma_me=1 / trellis=2 / 8x8dct=1 / cqm=0 / deadzone=21,11 / fast_pskip=1 / chroma_qp_offset=-3 / threads=16 / lookahead_threads=4 / sliced_threads=0 / nr=0 / decimate=1 / interlaced=0 / bluray_compat=0 / constrained_intra=0 / bframes=3 / b_pyramid=2 / b_adapt=2 / b_bias=0 / direct=3 / weightb=1 / open_gop=0 / weightp=2 / keyint=250 / keyint_min=25 / scenecut=40 / intra_refresh=0 / rc_lookahead=50 / rc=2pass / mbtree=1 / bitrate=2500 / ratetol=1.0 / qcomp=0.60 / qpmin=0 / qpmax=69 / qpstep=4 / cplxblur=20.0 / qblur=0.5 / vbv_maxrate=31250 / vbv_bufsize=31250 / nal_hrd=none / filler=0 / ip_ratio=1.40 / aq=3:1.00

Encoded date                             : UTC 2020-09-18 06:41:34

Tagged date                              : UTC 2020-09-18 06:41:34

Codec configuration box                  : avcC



Audio

ID                                       : 2

Format                                   : AAC LC

Format/Info                              : Advanced Audio Codec Low Complexity

Codec ID                                 : mp4a-40-2

Duration                                 : 42 min 3 s

Bit rate mode                            : Constant

Bit rate                                 : 224 kb/s

Channel(s)                               : 2 channels

Channel layout                           : L R

Sampling rate                            : 48.0 kHz

Frame rate                               : 46.875 FPS (1024 SPF)

Compression mode                         : Lossy

Stream size                              : 67.4 MiB (8%)

Language                                 : Portuguese

Default                                  : Yes

Alternate group                          : 1

Encoded date                             : UTC 2020-09-18 06:41:34

Tagged date                              : UTC 2020-09-18 06:41:34


悠悠MP4_MP4电影下载_七年前的五月 Seven.Years.in.May.2019.PORTUGUESE.1080p.WEBRip.x264-VXT 821.20MB悠悠MP4_MP4电影下载_七年前的五月 Seven.Years.in.May.2019.PORTUGUESE.1080p.WEBRip.x264-VXT 821.20MB悠悠MP4_MP4电影下载_七年前的五月 Seven.Years.in.May.2019.PORTUGUESE.1080p.WEBRip.x264-VXT 821.20MB

                                                                                           

提示:如迅雷下载提示"任务出错"、"因版权无法下载",请尝试【迅雷5】
上传的附件:
最新回复 (0)
返回
本站所有资源均收集自互联网,没有提供影片资源存储, 也未参与录制、上传,若本站收录的资源无意侵犯了您的权益, 请联系邮箱:gogoimgs#gmail.com(#=@)