[2012] [欧美] [喜剧] [BD-Remux] 龙虎少年队/逃学黐孖咇 21.Jump.Street.2012.1080p.BluRay.REMUX.AVC.DTS-HD.MA.TrueHD.7.1.Atmos-FGT 24.97GB

uump4 13天前 66

悠悠MP4_MP4电影下载_龙虎少年队/逃学黐孖咇 21.Jump.Street.2012.1080p.BluRay.REMUX.AVC.DTS-HD.MA.TrueHD.7.1.Atmos-FGT 24.97GB
悠悠MP4_MP4电影下载_龙虎少年队/逃学黐孖咇 21.Jump.Street.2012.1080p.BluRay.REMUX.AVC.DTS-HD.MA.TrueHD.7.1.Atmos-FGT 24.97GB

◎译  名 龙虎少年队 / 逃学黐孖咇(港)
◎片  名 21 Jump Street
◎年  代 2012
◎产  地 美国
◎类  别 喜剧 / 动作 / 犯罪
◎语  言 英语
◎上映日期 2012-03-16(美国)
◎IMDb评分  7.2/10 from 498476 users
◎IMDb链接  https://www.imdb.com/title/tt1232829
◎豆瓣评分 6.9/10 from 30218 users
◎豆瓣链接 https://movie.douban.com/subject/3072889/
◎片  长 109分钟
◎导  演 菲尔·罗德 Phil Lord / 克里斯托弗·米勒 Christopher Miller
◎编  剧 乔纳·希尔 Jonah Hill / 迈克尔·巴考尔 Michael Bacall / Patrick Hasburgh / 史蒂芬·J·坎内尔 Stephen J. Cannell
◎主  演 乔纳·希尔 Jonah Hill
       查宁·塔图姆 Channing Tatum
       约翰尼·西蒙斯 Johnny Simmons
       戴夫·弗兰科 Dave Franco
       Rob Riggle
       DeRay Davis
       艾丽·坎伯尔 Ellie Kemper
       艾斯·库珀 Ice Cube
       布丽·拉尔森 Brie Larson
       约翰尼·德普 Johnny Depp
       达科塔·约翰逊 Dakota Johnson


◎标  签 喜剧 | 搞笑 | 动作 | 校园 | 2012 | 青春 | 犯罪 | Channing

◎简  介  

  Morton Schmidt(乔纳·希尔 Jonah Hill 饰)和Greg Jenko(查宁·塔图姆 Channing Tatum 饰)两人是同学,后来又在警校相逢,两人互相帮忙,终于顺利从警校毕业,成为了好搭档。无奈两人只能当交警,抓抓小混混。后来他们加入了警方的卧底缉毒组织“21 Jump Street”,队长Dickon(艾斯·库珀 Ice Cube 饰)告诉他们,他们的任务是重回高中当卧底,找到那个向学生提供毒品的人。在学校里,他们了解到,学生们的毒品是从一个叫Eric(戴夫·弗兰科 Dave Franco 饰)的人手里来的,但案件并没有这么简单。同时,Schmidt也喜欢上Eric的一个朋友Molly,Jenko的化学老师似乎也对他挺感兴趣的。到底两人在学校的卧底调查会有怎样的结果?
  本片改编自同名电视剧。

◎获奖情况  

  第21届MTV电影奖(2012)
  MTV电影奖 最佳喜剧表演(提名) 乔纳·希尔
  MTV电影奖 最佳打斗(提名) 查宁·塔图姆 / 乔纳·希尔
  MTV电影奖 最佳银幕形象转变(提名) 约翰尼·德普
  MTV电影奖 最佳音乐
  MTV电影奖 最佳卡司阵容(提名)
  MTV电影奖 最佳英雄形象(提名) 查宁·塔图姆
  MTV电影奖 最虐心的表演(提名) 罗伯·里格尔 / 乔纳·希尔

  第18届美国评论家选择电影奖(2013)
  最佳喜剧片(提名)
  喜剧片最佳男主角(提名) 查宁·塔图姆

  第14届美国青少年选择奖(2012)
  最佳喜剧片
  最佳喜剧片男演员 查宁·塔图姆
  最佳喜剧片男演员(提名) 乔纳·希尔
  最佳银幕拍档(提名) 查宁·塔图姆 / 乔纳·希尔
  最佳电影打斗(提名) 查宁·塔图姆 / 乔纳·希尔
  Choice Movie: Hissy Fit(提名) 查宁·塔图姆 / 乔纳·希尔


Video

ID                                       : 1

Format                                   : AVC

Format/Info                              : Advanced Video Codec

Format profile                           : High@L4.1

Format settings                          : CABAC / 2 Ref Frames

Format settings, CABAC                   : Yes

Format settings, Reference frames        : 2 frames

Codec ID                                 : V_MPEG4/ISO/AVC

Duration                                 : 1 h 49 min

Bit rate mode                            : Variable

Bit rate                                 : 24.9 Mb/s

Width                                    : 1 920 pixels

Height                                   : 1 080 pixels

Display aspect ratio                     : 16:9

Frame rate mode                          : Constant

Frame rate                               : 23.976 (24000/1001/34539) FPS

Color space                              : YUV

Chroma subsampling                       : 4:2:0

Bit depth                                : 8 bits

Scan type                                : Progressive

Bits/(Pixel*Frame)                       : 0.500

Stream size                              : 19.0 GiB (76%)

Title                                    : 21.Jump.Street.2012.1080p.BluRay.REMUX.AVC.DTS-HD.MA.TrueHD.7.1.Atmos-FGT

Language                                 : English

Default                                  : Yes

Forced                                   : No



Audio #1

ID                                       : 2

ID in the original source medium         : 4352 (0x1100)

Format                                   : MLP FBA 16-ch

Format/Info                              : Meridian Lossless Packing FBA with 16-channel presentation

Commercial name                          : Dolby TrueHD with Dolby Atmos

Codec ID                                 : A_TRUEHD

Duration                                 : 1 h 49 min

Bit rate mode                            : Variable

Bit rate                                 : 2 714 kb/s

Maximum bit rate                         : 4 188 kb/s

Channel(s)                               : 8 channels

Channel layout                           : L R C LFE Ls Rs Lb Rb

Sampling rate                            : 48.0 kHz

Frame rate                               : 1 200.000 FPS (40 SPF)

Compression mode                         : Lossless

Stream size                              : 2.08 GiB (8%)

Title                                    : 21.Jump.Street.2012.1080p.BluRay.REMUX.AVC.DTS-HD.MA.TrueHD.7.1.Atmos-FGT

Language                                 : English

Default                                  : Yes

Forced                                   : No

Original source medium                   : Blu-ray

Number of dynamic objects                : 11

Bed channel count                        : 1 channel

Bed channel configuration                : LFE



Audio #2

ID                                       : 3

Format                                   : DTS XLL

Format/Info                              : Digital Theater Systems

Commercial name                          : DTS-HD Master Audio

Codec ID                                 : A_DTS

Duration                                 : 1 h 49 min

Bit rate mode                            : Variable

Bit rate                                 : 3 840 kb/s

Channel(s)                               : 8 channels

Channel layout                           : C L R LFE Lb Rb Lss Rss

Sampling rate                            : 48.0 kHz

Frame rate                               : 93.750 FPS (512 SPF)

Bit depth                                : 24 bits

Compression mode                         : Lossless

Stream size                              : 2.94 GiB (12%)

Title                                    : 21.Jump.Street.2012.1080p.BluRay.REMUX.AVC.DTS-HD.MA.TrueHD.7.1.Atmos-FGT

Language                                 : English

Default                                  : No

Forced                                   : No



Audio #3

ID                                       : 4

ID in the original source medium         : 4352 (0x1100)

Format                                   : AC-3

Format/Info                              : Audio Coding 3

Commercial name                          : Dolby Digital

Codec ID                                 : A_AC3

Duration                                 : 1 h 49 min

Bit rate mode                            : Constant

Bit rate                                 : 640 kb/s

Channel(s)                               : 6 channels

Channel layout                           : L R C LFE Ls Rs

Sampling rate                            : 48.0 kHz

Frame rate                               : 31.250 FPS (1536 SPF)

Compression mode                         : Lossy

Stream size                              : 502 MiB (2%)

Title                                    : 21.Jump.Street.2012.1080p.BluRay.REMUX.AVC.DTS-HD.MA.TrueHD.7.1.Atmos-FGT

Language                                 : English

Service kind                             : Complete Main

Default                                  : No

Forced                                   : No

Original source medium                   : Blu-ray



Text #1

ID                                       : 5

Format                                   : UTF-8

Codec ID                                 : S_TEXT/UTF8

Codec ID/Info                            : UTF-8 Plain Text

Duration                                 : 1 h 45 min

Bit rate                                 : 86 b/s

Count of elements                        : 1977

Stream size                              : 66.7 KiB (0%)

Title                                    : English-SRT

Language                                 : English

Default                                  : Yes

Forced                                   : No



Text #2

ID                                       : 6

ID in the original source medium         : 4770 (0x12A2)

Format                                   : PGS

Muxing mode                              : zlib

Codec ID                                 : S_HDMV/PGS

Codec ID/Info                            : Picture based subtitle format used on BDs/HD-DVDs

Duration                                 : 1 h 45 min

Bit rate                                 : 50.5 kb/s

Count of elements                        : 3976

Stream size                              : 37.9 MiB (0%)

Title                                    : English-PGS

Language                                 : English

Default                                  : No

Forced                                   : No

Original source medium                   : Blu-ray



Text #3

ID                                       : 7

ID in the original source medium         : 4768 (0x12A0)

Format                                   : PGS

Muxing mode                              : zlib

Codec ID                                 : S_HDMV/PGS

Codec ID/Info                            : Picture based subtitle format used on BDs/HD-DVDs

Duration                                 : 1 h 49 min

Bit rate                                 : 55.7 kb/s

Count of elements                        : 4704

Stream size                              : 43.7 MiB (0%)

Title                                    : English-SDH-PGS

Language                                 : English

Default                                  : No

Forced                                   : No

Original source medium                   : Blu-ray



Text #4

ID                                       : 8

ID in the original source medium         : 4771 (0x12A3)

Format                                   : PGS

Muxing mode                              : zlib

Codec ID                                 : S_HDMV/PGS

Codec ID/Info                            : Picture based subtitle format used on BDs/HD-DVDs

Duration                                 : 1 h 48 min

Bit rate                                 : 20.1 kb/s

Count of elements                        : 3536

Stream size                              : 15.7 MiB (0%)

Title                                    : Arabic-PGS

Language                                 : Arabic

Default                                  : No

Forced                                   : No

Original source medium                   : Blu-ray



Text #5

ID                                       : 9

ID in the original source medium         : 4772 (0x12A4)

Format                                   : PGS

Muxing mode                              : zlib

Codec ID                                 : S_HDMV/PGS

Codec ID/Info                            : Picture based subtitle format used on BDs/HD-DVDs

Duration                                 : 1 h 45 min

Bit rate                                 : 43.3 kb/s

Count of elements                        : 4070

Stream size                              : 32.8 MiB (0%)

Title                                    : Chinese-PGS

Language                                 : Chinese

Default                                  : No

Forced                                   : No

Original source medium                   : Blu-ray



Text #6

ID                                       : 10

ID in the original source medium         : 4773 (0x12A5)

Format                                   : PGS

Muxing mode                              : zlib

Codec ID                                 : S_HDMV/PGS

Codec ID/Info                            : Picture based subtitle format used on BDs/HD-DVDs

Duration                                 : 1 h 45 min

Bit rate                                 : 40.3 kb/s

Count of elements                        : 4070

Stream size                              : 30.5 MiB (0%)

Title                                    : Chinese-PGS

Language                                 : Chinese

Default                                  : No

Forced                                   : No

Original source medium                   : Blu-ray



Text #7

ID                                       : 11

ID in the original source medium         : 4774 (0x12A6)

Format                                   : PGS

Muxing mode                              : zlib

Codec ID                                 : S_HDMV/PGS

Codec ID/Info                            : Picture based subtitle format used on BDs/HD-DVDs

Duration                                 : 1 h 45 min

Bit rate                                 : 39.2 kb/s

Count of elements                        : 4064

Stream size                              : 29.7 MiB (0%)

Title                                    : Czech-PGS

Language                                 : Czech

Default                                  : No

Forced                                   : No

Original source medium                   : Blu-ray



Text #8

ID                                       : 12

ID in the original source medium         : 4775 (0x12A7)

Format                                   : PGS

Muxing mode                              : zlib

Codec ID                                 : S_HDMV/PGS

Codec ID/Info                            : Picture based subtitle format used on BDs/HD-DVDs

Duration                                 : 1 h 48 min

Bit rate                                 : 37.3 kb/s

Count of elements                        : 3616

Stream size                              : 29.0 MiB (0%)

Title                                    : Danish-PGS

Language                                 : Danish

Default                                  : No

Forced                                   : No

Original source medium                   : Blu-ray



Text #9

ID                                       : 13

ID in the original source medium         : 4776 (0x12A8)

Format                                   : PGS

Muxing mode                              : zlib

Codec ID                                 : S_HDMV/PGS

Codec ID/Info                            : Picture based subtitle format used on BDs/HD-DVDs

Duration                                 : 1 h 45 min

Bit rate                                 : 34.0 kb/s

Count of elements                        : 4055

Stream size                              : 25.7 MiB (0%)

Title                                    : Dutch-PGS

Language                                 : Dutch

Default                                  : No

Forced                                   : No

Original source medium                   : Blu-ray



Text #10

ID                                       : 14

ID in the original source medium         : 4777 (0x12A9)

Format                                   : PGS

Muxing mode                              : zlib

Codec ID                                 : S_HDMV/PGS

Codec ID/Info                            : Picture based subtitle format used on BDs/HD-DVDs

Duration                                 : 1 h 45 min

Bit rate                                 : 42.1 kb/s

Count of elements                        : 3086

Stream size                              : 31.9 MiB (0%)

Title                                    : Estonian-PGS

Language                                 : Estonian

Default                                  : No

Forced                                   : No

Original source medium                   : Blu-ray



Text #11

ID                                       : 15

ID in the original source medium         : 4778 (0x12AA)

Format                                   : PGS

Muxing mode                              : zlib

Codec ID                                 : S_HDMV/PGS

Codec ID/Info                            : Picture based subtitle format used on BDs/HD-DVDs

Duration                                 : 1 h 45 min

Bit rate                                 : 42.2 kb/s

Count of elements                        : 4066

Stream size                              : 32.0 MiB (0%)

Title                                    : Finnish-PGS

Language                                 : Finnish

Default                                  : No

Forced                                   : No

Original source medium                   : Blu-ray



Text #12

ID                                       : 16

ID in the original source medium         : 4779 (0x12AB)

Format                                   : PGS

Muxing mode                              : zlib

Codec ID                                 : S_HDMV/PGS

Codec ID/Info                            : Picture based subtitle format used on BDs/HD-DVDs

Duration                                 : 1 h 48 min

Bit rate                                 : 31.7 kb/s

Count of elements                        : 3580

Stream size                              : 24.7 MiB (0%)

Title                                    : French-PGS

Language                                 : French

Default                                  : No

Forced                                   : No

Original source medium                   : Blu-ray



Text #13

ID                                       : 17

ID in the original source medium         : 4780 (0x12AC)

Format                                   : PGS

Muxing mode                              : zlib

Codec ID                                 : S_HDMV/PGS

Codec ID/Info                            : Picture based subtitle format used on BDs/HD-DVDs

Duration                                 : 1 h 48 min

Bit rate                                 : 40.2 kb/s

Count of elements                        : 4170

Stream size                              : 31.3 MiB (0%)

Title                                    : German-PGS

Language                                 : German

Default                                  : No

Forced                                   : No

Original source medium                   : Blu-ray



Text #14

ID                                       : 18

ID in the original source medium         : 4781 (0x12AD)

Format                                   : PGS

Muxing mode                              : zlib

Codec ID                                 : S_HDMV/PGS

Codec ID/Info                            : Picture based subtitle format used on BDs/HD-DVDs

Duration                                 : 1 h 45 min

Bit rate                                 : 41.6 kb/s

Count of elements                        : 3748

Stream size                              : 31.5 MiB (0%)

Title                                    : Greek-PGS

Language                                 : Greek

Default                                  : No

Forced                                   : No

Original source medium                   : Blu-ray



Text #15

ID                                       : 19

ID in the original source medium         : 4782 (0x12AE)

Format                                   : PGS

Muxing mode                              : zlib

Codec ID                                 : S_HDMV/PGS

Codec ID/Info                            : Picture based subtitle format used on BDs/HD-DVDs

Duration                                 : 1 h 48 min

Bit rate                                 : 31.0 kb/s

Count of elements                        : 3420

Stream size                              : 24.1 MiB (0%)

Title                                    : Hebrew-PGS

Language                                 : Hebrew

Default                                  : No

Forced                                   : No

Original source medium                   : Blu-ray



Text #16

ID                                       : 20

ID in the original source medium         : 4783 (0x12AF)

Format                                   : PGS

Muxing mode                              : zlib

Codec ID                                 : S_HDMV/PGS

Codec ID/Info                            : Picture based subtitle format used on BDs/HD-DVDs

Duration                                 : 1 h 45 min

Bit rate                                 : 38.4 kb/s

Count of elements                        : 4090

Stream size                              : 29.0 MiB (0%)

Title                                    : Hindi-PGS

Language                                 : Hindi

Default                                  : No

Forced                                   : No

Original source medium                   : Blu-ray



Text #17

ID                                       : 21

ID in the original source medium         : 4784 (0x12B0)

Format                                   : PGS

Muxing mode                              : zlib

Codec ID                                 : S_HDMV/PGS

Codec ID/Info                            : Picture based subtitle format used on BDs/HD-DVDs

Duration                                 : 1 h 45 min

Bit rate                                 : 46.5 kb/s

Count of elements                        : 4026

Stream size                              : 35.2 MiB (0%)

Title                                    : Hungarian-PGS

Language                                 : Hungarian

Default                                  : No

Forced                                   : No

Original source medium                   : Blu-ray



Text #18

ID                                       : 22

ID in the original source medium         : 4785 (0x12B1)

Format                                   : PGS

Muxing mode                              : zlib

Codec ID                                 : S_HDMV/PGS

Codec ID/Info                            : Picture based subtitle format used on BDs/HD-DVDs

Duration                                 : 1 h 48 min

Bit rate                                 : 46.2 kb/s

Count of elements                        : 3422

Stream size                              : 36.0 MiB (0%)

Title                                    : Indonesian-PGS

Language                                 : Indonesian

Default                                  : No

Forced                                   : No

Original source medium                   : Blu-ray



Text #19

ID                                       : 23

ID in the original source medium         : 4786 (0x12B2)

Format                                   : PGS

Muxing mode                              : zlib

Codec ID                                 : S_HDMV/PGS

Codec ID/Info                            : Picture based subtitle format used on BDs/HD-DVDs

Duration                                 : 1 h 45 min

Bit rate                                 : 43.5 kb/s

Count of elements                        : 4062

Stream size                              : 32.9 MiB (0%)

Title                                    : Italian-PGS

Language                                 : Italian

Default                                  : No

Forced                                   : No

Original source medium                   : Blu-ray



Text #20

ID                                       : 24

ID in the original source medium         : 4787 (0x12B3)

Format                                   : PGS

Muxing mode                              : zlib

Codec ID                                 : S_HDMV/PGS

Codec ID/Info                            : Picture based subtitle format used on BDs/HD-DVDs

Duration                                 : 1 h 45 min

Bit rate                                 : 33.2 kb/s

Count of elements                        : 4078

Stream size                              : 25.1 MiB (0%)

Title                                    : Korean-PGS

Language                                 : Korean

Default                                  : No

Forced                                   : No

Original source medium                   : Blu-ray



Text #21

ID                                       : 25

ID in the original source medium         : 4788 (0x12B4)

Format                                   : PGS

Muxing mode                              : zlib

Codec ID                                 : S_HDMV/PGS

Codec ID/Info                            : Picture based subtitle format used on BDs/HD-DVDs

Duration                                 : 1 h 48 min

Bit rate                                 : 30.0 kb/s

Count of elements                        : 3658

Stream size                              : 23.4 MiB (0%)

Title                                    : Polish-PGS

Language                                 : Polish

Default                                  : No

Forced                                   : No

Original source medium                   : Blu-ray



Text #22

ID                                       : 26

ID in the original source medium         : 4789 (0x12B5)

Format                                   : PGS

Muxing mode                              : zlib

Codec ID                                 : S_HDMV/PGS

Codec ID/Info                            : Picture based subtitle format used on BDs/HD-DVDs

Duration                                 : 1 h 48 min

Bit rate                                 : 41.1 kb/s

Count of elements                        : 3382

Stream size                              : 32.0 MiB (0%)

Title                                    : Portuguese-PGS

Language                                 : Portuguese

Default                                  : No

Forced                                   : No

Original source medium                   : Blu-ray



Text #23

ID                                       : 27

ID in the original source medium         : 4790 (0x12B6)

Format                                   : PGS

Muxing mode                              : zlib

Codec ID                                 : S_HDMV/PGS

Codec ID/Info                            : Picture based subtitle format used on BDs/HD-DVDs

Duration                                 : 1 h 48 min

Bit rate                                 : 37.7 kb/s

Count of elements                        : 2900

Stream size                              : 29.3 MiB (0%)

Title                                    : Romanian-PGS

Language                                 : Romanian

Default                                  : No

Forced                                   : No

Original source medium                   : Blu-ray



Text #24

ID                                       : 28

ID in the original source medium         : 4791 (0x12B7)

Format                                   : PGS

Muxing mode                              : zlib

Codec ID                                 : S_HDMV/PGS

Codec ID/Info                            : Picture based subtitle format used on BDs/HD-DVDs

Duration                                 : 1 h 45 min

Bit rate                                 : 45.4 kb/s

Count of elements                        : 3722

Stream size                              : 34.3 MiB (0%)

Title                                    : Russian-PGS

Language                                 : Russian

Default                                  : No

Forced                                   : No

Original source medium                   : Blu-ray



Text #25

ID                                       : 29

ID in the original source medium         : 4792 (0x12B8)

Format                                   : PGS

Muxing mode                              : zlib

Codec ID                                 : S_HDMV/PGS

Codec ID/Info                            : Picture based subtitle format used on BDs/HD-DVDs

Duration                                 : 1 h 45 min

Bit rate                                 : 38.0 kb/s

Count of elements                        : 3346

Stream size                              : 28.8 MiB (0%)

Title                                    : Serbian-PGS

Language                                 : Serbian

Default                                  : No

Forced                                   : No

Original source medium                   : Blu-ray



Text #26

ID                                       : 30

ID in the original source medium         : 4793 (0x12B9)

Format                                   : PGS

Muxing mode                              : zlib

Codec ID                                 : S_HDMV/PGS

Codec ID/Info                            : Picture based subtitle format used on BDs/HD-DVDs

Duration                                 : 1 h 48 min

Bit rate                                 : 45.4 kb/s

Count of elements                        : 4074

Stream size                              : 35.4 MiB (0%)

Title                                    : Spanish-PGS

Language                                 : Spanish

Default                                  : No

Forced                                   : No

Original source medium                   : Blu-ray



Text #27

ID                                       : 31

ID in the original source medium         : 4793 (0x12B9)

Format                                   : PGS

Muxing mode                              : zlib

Codec ID                                 : S_HDMV/PGS

Codec ID/Info                            : Picture based subtitle format used on BDs/HD-DVDs

Duration                                 : 1 h 48 min

Bit rate                                 : 810 b/s

Count of elements                        : 82

Stream size                              : 646 KiB (0%)

Title                                    : Spanish-PGS

Language                                 : Spanish

Default                                  : No

Forced                                   : No

Original source medium                   : Blu-ray



Text #28

ID                                       : 32

ID in the original source medium         : 4795 (0x12BB)

Format                                   : PGS

Muxing mode                              : zlib

Codec ID                                 : S_HDMV/PGS

Codec ID/Info                            : Picture based subtitle format used on BDs/HD-DVDs

Duration                                 : 1 h 48 min

Bit rate                                 : 30.2 kb/s

Count of elements                        : 2072

Stream size                              : 23.5 MiB (0%)

Title                                    : Swedish-PGS

Language                                 : Swedish

Default                                  : No

Forced                                   : No

Original source medium                   : Blu-ray



Text #29

ID                                       : 33

ID in the original source medium         : 4796 (0x12BC)

Format                                   : PGS

Muxing mode                              : zlib

Codec ID                                 : S_HDMV/PGS

Codec ID/Info                            : Picture based subtitle format used on BDs/HD-DVDs

Duration                                 : 1 h 45 min

Bit rate                                 : 47.7 kb/s

Count of elements                        : 4062

Stream size                              : 36.1 MiB (0%)

Title                                    : Thai-PGS

Language                                 : Thai

Default                                  : No

Forced                                   : No

Original source medium                   : Blu-ray



Text #30

ID                                       : 34

ID in the original source medium         : 4797 (0x12BD)

Format                                   : PGS

Muxing mode                              : zlib

Codec ID                                 : S_HDMV/PGS

Codec ID/Info                            : Picture based subtitle format used on BDs/HD-DVDs

Duration                                 : 1 h 45 min

Bit rate                                 : 39.8 kb/s

Count of elements                        : 3332

Stream size                              : 30.1 MiB (0%)

Title                                    : Turkish-PGS

Language                                 : Turkish

Default                                  : No

Forced                                   : No

Original source medium                   : Blu-ray



Menu

00:00:00.000                             : en:Chapter 01

00:08:57.328                             : en:Chapter 02

00:18:21.683                             : en:Chapter 03

00:26:14.447                             : en:Chapter 04

00:33:15.827                             : en:Chapter 05

00:39:38.626                             : en:Chapter 06

00:45:53.292                             : en:Chapter 07

00:50:05.335                             : en:Chapter 08

00:56:19.501                             : en:Chapter 09

01:04:42.712                             : en:Chapter 10

01:09:49.185                             : en:Chapter 11

01:15:22.684                             : en:Chapter 12

01:19:53.789                             : en:Chapter 13

01:25:25.328                             : en:Chapter 14

01:34:44.470                             : en:Chapter 15

01:40:50.544                             : en:Chapter 16


悠悠MP4_MP4电影下载_龙虎少年队/逃学黐孖咇 21.Jump.Street.2012.1080p.BluRay.REMUX.AVC.DTS-HD.MA.TrueHD.7.1.Atmos-FGT 24.97GB悠悠MP4_MP4电影下载_龙虎少年队/逃学黐孖咇 21.Jump.Street.2012.1080p.BluRay.REMUX.AVC.DTS-HD.MA.TrueHD.7.1.Atmos-FGT 24.97GB悠悠MP4_MP4电影下载_龙虎少年队/逃学黐孖咇 21.Jump.Street.2012.1080p.BluRay.REMUX.AVC.DTS-HD.MA.TrueHD.7.1.Atmos-FGT 24.97GB

                                                                                           

提示:如迅雷下载提示"任务出错"、"因版权无法下载",请尝试【迅雷5】
上传的附件:
最新回复 (0)
返回
本站所有资源均收集自互联网,没有提供影片资源存储, 也未参与录制、上传,若本站收录的资源无意侵犯了您的权益, 请联系邮箱:gogoimgs#gmail.com(#=@)