[2014] [欧美] [喜剧] [BD-1080P] 龙虎少年队2/囧探出更 22.Jump.Street.2014.1080p.BluRay.x264.TrueHD.7.1.Atmos-FGT 9.95GB

uump4 13天前 51

悠悠MP4_MP4电影下载_龙虎少年队2/囧探出更 22.Jump.Street.2014.1080p.BluRay.x264.TrueHD.7.1.Atmos-FGT 9.95GB
悠悠MP4_MP4电影下载_龙虎少年队2/囧探出更 22.Jump.Street.2014.1080p.BluRay.x264.TrueHD.7.1.Atmos-FGT 9.95GB

◎译  名 龙虎少年队2 / 21 Jump Street 2 / 囧探出更(港) / 龙虎少年队:童颜巨捕(台)
◎片  名 22 Jump Street
◎年  代 2014
◎产  地 美国
◎类  别 喜剧 / 动作 / 犯罪
◎语  言 英语
◎上映日期 2014-06-13(美国)
◎IMDb评分  7.0/10 from 339712 users
◎IMDb链接  https://www.imdb.com/title/tt2294449
◎豆瓣评分 6.9/10 from 22992 users
◎豆瓣链接 https://movie.douban.com/subject/10546666/
◎片  长 112分钟
◎导  演 菲尔·罗德 Phil Lord / 克里斯托弗·米勒 Christopher Miller
◎编  剧 迈克尔·巴考尔 Michael Bacall / 奥伦·尤济尔 Oren Uziel / 罗德尼·罗斯曼 Rodney Rothman / 乔纳·希尔 Jonah Hill
◎主  演 乔纳·希尔 Jonah Hill
       查宁·塔图姆 Channing Tatum
       彼得·斯特曼 Peter Stormare
       怀亚特·罗素 Wyatt Russell
       艾波·斯蒂文斯 Amber Stevens
       吉莉恩·贝尔 Jillian Bell
       艾斯·库珀 Ice Cube
       尼克·奥弗曼 Nick Offerman
       吉米·塔特罗 Jimmy Tatro
       卡罗琳·阿隆 Caroline Aaron
       克雷格·罗伯兹 Craig Roberts
       马克·埃文·杰克逊 Marc Evan Jackson
       乔·克里斯特 Joe Chrest
       埃迪·J.费尔南德斯 Eddie J. Fernandez
       泰勒·福雷斯特 Tyler Forrest
       罗伯·里格尔 Rob Riggle
       徐海为 Haiwei Xu
       戴夫·弗兰科 Dave Franco
       德克斯·弗拉姆 Dax Flame
       理查德·格里克 Richard Grieco
       奎恩·拉提法 Queen Latifah
       库尔特·克劳斯 Kurt Krause
       托比·尼克尔斯 Toby Nichols
       阮春智 Dustin Nguyen
       塞斯·罗根 Seth Rogen
       安娜·法瑞丝 Anna Faris


◎标  签 喜剧 | 美国 | 动作 | 搞笑 | 2014 | 犯罪 | 好基友 | 校园

◎简  介  

  故事紧接着上一部继续发展。延科(查宁·塔图姆 Channing Tatum 饰)和施密特(乔纳·希尔 Jonah Hill 饰)好不容易从高中“顺利毕业”,等待着他们的,却是又一轮卧底行动,这一次,他们要挑战的对象是“大学”。和高中相比,大学里人际关系的复杂程度和课业难度都要更上一层楼,这一次,兄弟两人能够顺利完成任务吗?在学园中,延科加入了校足球队,结识了一帮志同道合的好友,与此同时,施密特选择就读艺术系,与古灵精怪的玛雅(安珀·史蒂芬斯 Amber Stevens 饰)发生了一段浪漫轶事。然而,丰富精彩的大学生活令密不可分的延科和施密特之间产生了裂痕,这裂痕之巨大很可能导致患难与共的两人最终分道扬镳。

◎获奖情况  

  第16届美国青少年选择奖(2014)
  最佳突破表演电影新星(提名) 怀亚特·罗素
  最佳银幕拍档(提名) 查宁·塔图姆 / 乔纳·希尔
  Choice Movie: Hissy Fit 乔纳·希尔
  Choice Movie: Hissy Fit(提名) 艾斯·库珀
  最佳暑期电影
  最佳暑期电影明星 查宁·塔图姆
  最佳暑期电影明星(提名) 乔纳·希尔


Video

ID                                       : 1

Format                                   : AVC

Format/Info                              : Advanced Video Codec

Format profile                           : High@L4.1

Format settings                          : CABAC / 5 Ref Frames

Format settings, CABAC                   : Yes

Format settings, Reference frames        : 5 frames

Codec ID                                 : V_MPEG4/ISO/AVC

Duration                                 : 1 h 51 min

Bit rate                                 : 8 646 kb/s

Width                                    : 1 920 pixels

Height                                   : 808 pixels

Display aspect ratio                     : 2.40:1

Frame rate mode                          : Constant

Frame rate                               : 23.976 FPS

Color space                              : YUV

Chroma subsampling                       : 4:2:0

Bit depth                                : 8 bits

Scan type                                : Progressive

Bits/(Pixel*Frame)                       : 0.232

Stream size                              : 6.76 GiB (68%)

Title                                    : 22.Jump.Street.2014.1080p.BluRay.x264.TrueHD.7.1.Atmos-FGT

Writing library                          : x264 core 142 r2479 dd79a61

Encoding settings                        : cabac=1 / ref=5 / deblock=1:0:0 / analyse=0x3:0x133 / me=umh / subme=7 / psy=1 / psy_rd=1.00:0.00 / mixed_ref=1 / me_range=16 / chroma_me=1 / trellis=1 / 8x8dct=1 / cqm=0 / deadzone=21,11 / fast_pskip=0 / chroma_qp_offset=-2 / threads=18 / lookahead_threads=3 / sliced_threads=0 / nr=0 / decimate=1 / interlaced=0 / bluray_compat=0 / constrained_intra=0 / bframes=3 / b_pyramid=2 / b_adapt=1 / b_bias=0 / direct=1 / weightb=1 / open_gop=0 / weightp=2 / keyint=250 / keyint_min=23 / scenecut=40 / intra_refresh=0 / rc_lookahead=40 / rc=2pass / mbtree=1 / bitrate=8646 / ratetol=1.0 / qcomp=0.60 / qpmin=0 / qpmax=69 / qpstep=4 / cplxblur=20.0 / qblur=0.5 / ip_ratio=1.40 / aq=1:1.00

Language                                 : English

Default                                  : Yes

Forced                                   : No



Audio #1

ID                                       : 2

ID in the original source medium         : 4352 (0x1100)

Format                                   : MLP FBA 16-ch

Format/Info                              : Meridian Lossless Packing FBA with 16-channel presentation

Commercial name                          : Dolby TrueHD with Dolby Atmos

Codec ID                                 : A_TRUEHD

Duration                                 : 1 h 51 min

Bit rate mode                            : Variable

Bit rate                                 : 2 725 kb/s

Maximum bit rate                         : 3 879 kb/s

Channel(s)                               : 8 channels

Channel layout                           : L R C LFE Ls Rs Lb Rb

Sampling rate                            : 48.0 kHz

Frame rate                               : 1 200.000 FPS (40 SPF)

Compression mode                         : Lossless

Stream size                              : 2.13 GiB (21%)

Title                                    : 22.Jump.Street.2014.1080p.BluRay.x264.TrueHD.7.1.Atmos-FGT

Language                                 : English

Default                                  : Yes

Forced                                   : No

Original source medium                   : Blu-ray

Number of dynamic objects                : 11

Bed channel count                        : 1 channel

Bed channel configuration                : LFE



Audio #2

ID                                       : 3

ID in the original source medium         : 4352 (0x1100)

Format                                   : AC-3

Format/Info                              : Audio Coding 3

Commercial name                          : Dolby Digital

Codec ID                                 : A_AC3

Duration                                 : 1 h 51 min

Bit rate mode                            : Constant

Bit rate                                 : 640 kb/s

Channel(s)                               : 6 channels

Channel layout                           : L R C LFE Ls Rs

Sampling rate                            : 48.0 kHz

Frame rate                               : 31.250 FPS (1536 SPF)

Compression mode                         : Lossy

Stream size                              : 512 MiB (5%)

Title                                    : 22.Jump.Street.2014.1080p.BluRay.x264.TrueHD.7.1.Atmos-FGT

Language                                 : English

Service kind                             : Complete Main

Default                                  : No

Forced                                   : No

Original source medium                   : Blu-ray



Text #1

ID                                       : 4

Format                                   : UTF-8

Codec ID                                 : S_TEXT/UTF8

Codec ID/Info                            : UTF-8 Plain Text

Duration                                 : 1 h 50 min

Bit rate                                 : 87 b/s

Count of elements                        : 1999

Stream size                              : 70.7 KiB (0%)

Title                                    : English-SRT

Language                                 : English

Default                                  : Yes

Forced                                   : No



Text #2

ID                                       : 5

ID in the original source medium         : 4770 (0x12A2)

Format                                   : PGS

Muxing mode                              : zlib

Codec ID                                 : S_HDMV/PGS

Codec ID/Info                            : Picture based subtitle format used on BDs/HD-DVDs

Duration                                 : 1 h 50 min

Bit rate                                 : 53.9 kb/s

Count of elements                        : 4028

Stream size                              : 42.7 MiB (0%)

Title                                    : English-PGS

Language                                 : English

Default                                  : No

Forced                                   : No

Original source medium                   : Blu-ray



Text #3

ID                                       : 6

ID in the original source medium         : 4768 (0x12A0)

Format                                   : PGS

Muxing mode                              : zlib

Codec ID                                 : S_HDMV/PGS

Codec ID/Info                            : Picture based subtitle format used on BDs/HD-DVDs

Duration                                 : 1 h 51 min

Bit rate                                 : 60.7 kb/s

Count of elements                        : 4524

Stream size                              : 48.5 MiB (0%)

Title                                    : English-SDH-PGS

Language                                 : English

Default                                  : No

Forced                                   : No

Original source medium                   : Blu-ray



Text #4

ID                                       : 7

ID in the original source medium         : 4771 (0x12A3)

Format                                   : PGS

Muxing mode                              : zlib

Codec ID                                 : S_HDMV/PGS

Codec ID/Info                            : Picture based subtitle format used on BDs/HD-DVDs

Duration                                 : 1 h 50 min

Bit rate                                 : 27.5 kb/s

Count of elements                        : 3876

Stream size                              : 21.8 MiB (0%)

Title                                    : Arabic-PGS

Language                                 : Arabic

Default                                  : No

Forced                                   : No

Original source medium                   : Blu-ray



Text #5

ID                                       : 8

ID in the original source medium         : 4772 (0x12A4)

Format                                   : PGS

Muxing mode                              : zlib

Codec ID                                 : S_HDMV/PGS

Codec ID/Info                            : Picture based subtitle format used on BDs/HD-DVDs

Duration                                 : 1 h 50 min

Bit rate                                 : 37.6 kb/s

Count of elements                        : 3658

Stream size                              : 29.8 MiB (0%)

Title                                    : Chinese-PGS

Language                                 : Chinese

Default                                  : No

Forced                                   : No

Original source medium                   : Blu-ray



Text #6

ID                                       : 9

ID in the original source medium         : 4773 (0x12A5)

Format                                   : PGS

Muxing mode                              : zlib

Codec ID                                 : S_HDMV/PGS

Codec ID/Info                            : Picture based subtitle format used on BDs/HD-DVDs

Duration                                 : 1 h 50 min

Bit rate                                 : 34.1 kb/s

Count of elements                        : 3647

Stream size                              : 27.0 MiB (0%)

Title                                    : Chinese-PGS

Language                                 : Chinese

Default                                  : No

Forced                                   : No

Original source medium                   : Blu-ray



Text #7

ID                                       : 10

ID in the original source medium         : 4774 (0x12A6)

Format                                   : PGS

Muxing mode                              : zlib

Codec ID                                 : S_HDMV/PGS

Codec ID/Info                            : Picture based subtitle format used on BDs/HD-DVDs

Duration                                 : 1 h 50 min

Bit rate                                 : 36.7 kb/s

Count of elements                        : 3626

Stream size                              : 29.1 MiB (0%)

Title                                    : Czech-PGS

Language                                 : Czech

Default                                  : No

Forced                                   : No

Original source medium                   : Blu-ray



Text #8

ID                                       : 11

ID in the original source medium         : 4775 (0x12A7)

Format                                   : PGS

Muxing mode                              : zlib

Codec ID                                 : S_HDMV/PGS

Codec ID/Info                            : Picture based subtitle format used on BDs/HD-DVDs

Duration                                 : 1 h 50 min

Bit rate                                 : 40.5 kb/s

Count of elements                        : 2786

Stream size                              : 32.1 MiB (0%)

Title                                    : Danish-PGS

Language                                 : Danish

Default                                  : No

Forced                                   : No

Original source medium                   : Blu-ray



Text #9

ID                                       : 12

ID in the original source medium         : 4776 (0x12A8)

Format                                   : PGS

Muxing mode                              : zlib

Codec ID                                 : S_HDMV/PGS

Codec ID/Info                            : Picture based subtitle format used on BDs/HD-DVDs

Duration                                 : 1 h 50 min

Bit rate                                 : 38.7 kb/s

Count of elements                        : 2732

Stream size                              : 30.7 MiB (0%)

Title                                    : Dutch-PGS

Language                                 : Dutch

Default                                  : No

Forced                                   : No

Original source medium                   : Blu-ray



Text #10

ID                                       : 13

ID in the original source medium         : 4777 (0x12A9)

Format                                   : PGS

Muxing mode                              : zlib

Codec ID                                 : S_HDMV/PGS

Codec ID/Info                            : Picture based subtitle format used on BDs/HD-DVDs

Duration                                 : 1 h 50 min

Bit rate                                 : 39.0 kb/s

Count of elements                        : 3936

Stream size                              : 31.0 MiB (0%)

Title                                    : Estonian-PGS

Language                                 : Estonian

Default                                  : No

Forced                                   : No

Original source medium                   : Blu-ray



Text #11

ID                                       : 14

ID in the original source medium         : 4778 (0x12AA)

Format                                   : PGS

Muxing mode                              : zlib

Codec ID                                 : S_HDMV/PGS

Codec ID/Info                            : Picture based subtitle format used on BDs/HD-DVDs

Duration                                 : 1 h 50 min

Bit rate                                 : 37.4 kb/s

Count of elements                        : 3532

Stream size                              : 29.6 MiB (0%)

Title                                    : Finnish-PGS

Language                                 : Finnish

Default                                  : No

Forced                                   : No

Original source medium                   : Blu-ray



Text #12

ID                                       : 15

ID in the original source medium         : 4779 (0x12AB)

Format                                   : PGS

Muxing mode                              : zlib

Codec ID                                 : S_HDMV/PGS

Codec ID/Info                            : Picture based subtitle format used on BDs/HD-DVDs

Duration                                 : 1 h 50 min

Bit rate                                 : 35.3 kb/s

Count of elements                        : 3482

Stream size                              : 28.0 MiB (0%)

Title                                    : French-PGS

Language                                 : French

Default                                  : No

Forced                                   : No

Original source medium                   : Blu-ray



Text #13

ID                                       : 16

ID in the original source medium         : 4780 (0x12AC)

Format                                   : PGS

Muxing mode                              : zlib

Codec ID                                 : S_HDMV/PGS

Codec ID/Info                            : Picture based subtitle format used on BDs/HD-DVDs

Duration                                 : 1 h 50 min

Bit rate                                 : 43.8 kb/s

Count of elements                        : 4666

Stream size                              : 34.7 MiB (0%)

Title                                    : German-PGS

Language                                 : German

Default                                  : No

Forced                                   : No

Original source medium                   : Blu-ray



Text #14

ID                                       : 17

ID in the original source medium         : 4781 (0x12AD)

Format                                   : PGS

Muxing mode                              : zlib

Codec ID                                 : S_HDMV/PGS

Codec ID/Info                            : Picture based subtitle format used on BDs/HD-DVDs

Duration                                 : 1 h 50 min

Bit rate                                 : 47.3 kb/s

Count of elements                        : 3640

Stream size                              : 37.5 MiB (0%)

Title                                    : Greek-PGS

Language                                 : Greek

Default                                  : No

Forced                                   : No

Original source medium                   : Blu-ray



Text #15

ID                                       : 18

ID in the original source medium         : 4782 (0x12AE)

Format                                   : PGS

Muxing mode                              : zlib

Codec ID                                 : S_HDMV/PGS

Codec ID/Info                            : Picture based subtitle format used on BDs/HD-DVDs

Duration                                 : 1 h 50 min

Bit rate                                 : 34.9 kb/s

Count of elements                        : 3880

Stream size                              : 27.6 MiB (0%)

Title                                    : Hebrew-PGS

Language                                 : Hebrew

Default                                  : No

Forced                                   : No

Original source medium                   : Blu-ray



Text #16

ID                                       : 19

ID in the original source medium         : 4783 (0x12AF)

Format                                   : PGS

Muxing mode                              : zlib

Codec ID                                 : S_HDMV/PGS

Codec ID/Info                            : Picture based subtitle format used on BDs/HD-DVDs

Duration                                 : 1 h 50 min

Bit rate                                 : 41.9 kb/s

Count of elements                        : 4174

Stream size                              : 33.2 MiB (0%)

Title                                    : Hindi-PGS

Language                                 : Hindi

Default                                  : No

Forced                                   : No

Original source medium                   : Blu-ray



Text #17

ID                                       : 20

ID in the original source medium         : 4784 (0x12B0)

Format                                   : PGS

Muxing mode                              : zlib

Codec ID                                 : S_HDMV/PGS

Codec ID/Info                            : Picture based subtitle format used on BDs/HD-DVDs

Duration                                 : 1 h 50 min

Bit rate                                 : 49.0 kb/s

Count of elements                        : 4164

Stream size                              : 38.8 MiB (0%)

Title                                    : Hungarian-PGS

Language                                 : Hungarian

Default                                  : No

Forced                                   : No

Original source medium                   : Blu-ray



Text #18

ID                                       : 21

ID in the original source medium         : 4785 (0x12B1)

Format                                   : PGS

Muxing mode                              : zlib

Codec ID                                 : S_HDMV/PGS

Codec ID/Info                            : Picture based subtitle format used on BDs/HD-DVDs

Duration                                 : 1 h 50 min

Bit rate                                 : 48.5 kb/s

Count of elements                        : 3686

Stream size                              : 38.4 MiB (0%)

Title                                    : Indonesian-PGS

Language                                 : Indonesian

Default                                  : No

Forced                                   : No

Original source medium                   : Blu-ray



Text #19

ID                                       : 22

ID in the original source medium         : 4786 (0x12B2)

Format                                   : PGS

Muxing mode                              : zlib

Codec ID                                 : S_HDMV/PGS

Codec ID/Info                            : Picture based subtitle format used on BDs/HD-DVDs

Duration                                 : 1 h 50 min

Bit rate                                 : 50.2 kb/s

Count of elements                        : 4154

Stream size                              : 39.7 MiB (0%)

Title                                    : Italian-PGS

Language                                 : Italian

Default                                  : No

Forced                                   : No

Original source medium                   : Blu-ray



Text #20

ID                                       : 23

ID in the original source medium         : 4787 (0x12B3)

Format                                   : PGS

Muxing mode                              : zlib

Codec ID                                 : S_HDMV/PGS

Codec ID/Info                            : Picture based subtitle format used on BDs/HD-DVDs

Duration                                 : 1 h 50 min

Bit rate                                 : 38.7 kb/s

Count of elements                        : 4174

Stream size                              : 30.7 MiB (0%)

Title                                    : Korean-PGS

Language                                 : Korean

Default                                  : No

Forced                                   : No

Original source medium                   : Blu-ray



Text #21

ID                                       : 24

ID in the original source medium         : 4788 (0x12B4)

Format                                   : PGS

Muxing mode                              : zlib

Codec ID                                 : S_HDMV/PGS

Codec ID/Info                            : Picture based subtitle format used on BDs/HD-DVDs

Duration                                 : 1 h 50 min

Bit rate                                 : 35.9 kb/s

Count of elements                        : 3256

Stream size                              : 28.4 MiB (0%)

Title                                    : Norwegian-PGS

Language                                 : Norwegian

Default                                  : No

Forced                                   : No

Original source medium                   : Blu-ray



Text #22

ID                                       : 25

ID in the original source medium         : 4789 (0x12B5)

Format                                   : PGS

Muxing mode                              : zlib

Codec ID                                 : S_HDMV/PGS

Codec ID/Info                            : Picture based subtitle format used on BDs/HD-DVDs

Duration                                 : 1 h 50 min

Bit rate                                 : 37.3 kb/s

Count of elements                        : 3446

Stream size                              : 29.5 MiB (0%)

Title                                    : Polish-PGS

Language                                 : Polish

Default                                  : No

Forced                                   : No

Original source medium                   : Blu-ray



Text #23

ID                                       : 26

ID in the original source medium         : 4790 (0x12B6)

Format                                   : PGS

Muxing mode                              : zlib

Codec ID                                 : S_HDMV/PGS

Codec ID/Info                            : Picture based subtitle format used on BDs/HD-DVDs

Duration                                 : 1 h 50 min

Bit rate                                 : 46.3 kb/s

Count of elements                        : 3530

Stream size                              : 36.8 MiB (0%)

Title                                    : Portuguese-PGS

Language                                 : Portuguese

Default                                  : No

Forced                                   : No

Original source medium                   : Blu-ray



Text #24

ID                                       : 27

ID in the original source medium         : 4791 (0x12B7)

Format                                   : PGS

Muxing mode                              : zlib

Codec ID                                 : S_HDMV/PGS

Codec ID/Info                            : Picture based subtitle format used on BDs/HD-DVDs

Duration                                 : 1 h 50 min

Bit rate                                 : 40.7 kb/s

Count of elements                        : 3126

Stream size                              : 32.3 MiB (0%)

Title                                    : Romanian-PGS

Language                                 : Romanian

Default                                  : No

Forced                                   : No

Original source medium                   : Blu-ray



Text #25

ID                                       : 28

ID in the original source medium         : 4792 (0x12B8)

Format                                   : PGS

Muxing mode                              : zlib

Codec ID                                 : S_HDMV/PGS

Codec ID/Info                            : Picture based subtitle format used on BDs/HD-DVDs

Duration                                 : 1 h 50 min

Bit rate                                 : 40.7 kb/s

Count of elements                        : 3928

Stream size                              : 32.2 MiB (0%)

Title                                    : Russian-PGS

Language                                 : Russian

Default                                  : No

Forced                                   : No

Original source medium                   : Blu-ray



Text #26

ID                                       : 29

ID in the original source medium         : 4793 (0x12B9)

Format                                   : PGS

Muxing mode                              : zlib

Codec ID                                 : S_HDMV/PGS

Codec ID/Info                            : Picture based subtitle format used on BDs/HD-DVDs

Duration                                 : 1 h 50 min

Bit rate                                 : 41.0 kb/s

Count of elements                        : 3636

Stream size                              : 32.5 MiB (0%)

Title                                    : Serbian-PGS

Language                                 : Serbian

Default                                  : No

Forced                                   : No

Original source medium                   : Blu-ray



Text #27

ID                                       : 30

ID in the original source medium         : 4794 (0x12BA)

Format                                   : PGS

Muxing mode                              : zlib

Codec ID                                 : S_HDMV/PGS

Codec ID/Info                            : Picture based subtitle format used on BDs/HD-DVDs

Duration                                 : 1 h 50 min

Bit rate                                 : 40.5 kb/s

Count of elements                        : 3736

Stream size                              : 32.1 MiB (0%)

Title                                    : Spanish-PGS

Language                                 : Spanish

Default                                  : No

Forced                                   : No

Original source medium                   : Blu-ray



Text #28

ID                                       : 31

ID in the original source medium         : 4795 (0x12BB)

Format                                   : PGS

Muxing mode                              : zlib

Codec ID                                 : S_HDMV/PGS

Codec ID/Info                            : Picture based subtitle format used on BDs/HD-DVDs

Duration                                 : 1 h 50 min

Bit rate                                 : 43.5 kb/s

Count of elements                        : 3972

Stream size                              : 34.5 MiB (0%)

Title                                    : Spanish-PGS

Language                                 : Spanish

Default                                  : No

Forced                                   : No

Original source medium                   : Blu-ray



Text #29

ID                                       : 32

ID in the original source medium         : 4796 (0x12BC)

Format                                   : PGS

Muxing mode                              : zlib

Codec ID                                 : S_HDMV/PGS

Codec ID/Info                            : Picture based subtitle format used on BDs/HD-DVDs

Duration                                 : 1 h 50 min

Bit rate                                 : 33.2 kb/s

Count of elements                        : 2114

Stream size                              : 26.3 MiB (0%)

Title                                    : Swedish-PGS

Language                                 : Swedish

Default                                  : No

Forced                                   : No

Original source medium                   : Blu-ray



Text #30

ID                                       : 33

ID in the original source medium         : 4797 (0x12BD)

Format                                   : PGS

Muxing mode                              : zlib

Codec ID                                 : S_HDMV/PGS

Codec ID/Info                            : Picture based subtitle format used on BDs/HD-DVDs

Duration                                 : 1 h 50 min

Bit rate                                 : 37.5 kb/s

Count of elements                        : 3656

Stream size                              : 29.7 MiB (0%)

Title                                    : Thai-PGS

Language                                 : Thai

Default                                  : No

Forced                                   : No

Original source medium                   : Blu-ray



Text #31

ID                                       : 34

ID in the original source medium         : 4798 (0x12BE)

Format                                   : PGS

Muxing mode                              : zlib

Codec ID                                 : S_HDMV/PGS

Codec ID/Info                            : Picture based subtitle format used on BDs/HD-DVDs

Duration                                 : 1 h 50 min

Bit rate                                 : 45.2 kb/s

Count of elements                        : 3656

Stream size                              : 35.8 MiB (0%)

Title                                    : Turkish-PGS

Language                                 : Turkish

Default                                  : No

Forced                                   : No

Original source medium                   : Blu-ray



Menu

00:00:00.000                             : en:Chapter 01

00:06:21.798                             : en:Chapter 02

00:13:09.288                             : en:Chapter 03

00:19:57.362                             : en:Chapter 04

00:26:32.173                             : en:Chapter 05

00:31:30.096                             : en:Chapter 06

00:36:47.246                             : en:Chapter 07

00:43:49.251                             : en:Chapter 08

00:51:46.186                             : en:Chapter 09

00:58:58.409                             : en:Chapter 10

01:07:30.588                             : en:Chapter 11

01:16:28.041                             : en:Chapter 12

01:23:02.602                             : en:Chapter 13

01:29:51.677                             : en:Chapter 14

01:35:25.469                             : en:Chapter 15

01:41:57.111                             : en:Chapter 16


悠悠MP4_MP4电影下载_龙虎少年队2/囧探出更 22.Jump.Street.2014.1080p.BluRay.x264.TrueHD.7.1.Atmos-FGT 9.95GB悠悠MP4_MP4电影下载_龙虎少年队2/囧探出更 22.Jump.Street.2014.1080p.BluRay.x264.TrueHD.7.1.Atmos-FGT 9.95GB悠悠MP4_MP4电影下载_龙虎少年队2/囧探出更 22.Jump.Street.2014.1080p.BluRay.x264.TrueHD.7.1.Atmos-FGT 9.95GB

                                                                                           

提示:如迅雷下载提示"任务出错"、"因版权无法下载",请尝试【迅雷5】
上传的附件:
最新回复 (0)
返回
本站所有资源均收集自互联网,没有提供影片资源存储, 也未参与录制、上传,若本站收录的资源无意侵犯了您的权益, 请联系邮箱:gogoimgs#gmail.com(#=@)