[更早] [欧美] [悬疑] [BD-4K] 后窗 Rear.Window.1954.2160p.UHD.BluRay.x265.10bit.HDR.DTS-HD.MA.2.0-SWTYBLZ 28.88GB

uump4 13天前 81

悠悠MP4_MP4电影下载_后窗 Rear.Window.1954.2160p.UHD.BluRay.x265.10bit.HDR.DTS-HD.MA.2.0-SWTYBLZ 28.88GB
悠悠MP4_MP4电影下载_后窗 Rear.Window.1954.2160p.UHD.BluRay.x265.10bit.HDR.DTS-HD.MA.2.0-SWTYBLZ 28.88GB

◎译  名 后窗 / Alfred Hitchcock's Rear Window / Fenêtre sur cour
◎片  名 Rear Window
◎年  代 1954
◎产  地 美国
◎类  别 悬疑 / 惊悚
◎语  言 英语
◎上映日期 1954-08-01(美国)
◎IMDb评分  8.4/10 from 426156 users
◎IMDb链接  https://www.imdb.com/title/tt0047396
◎豆瓣评分 8.6/10 from 119319 users
◎豆瓣链接 https://movie.douban.com/subject/1299080/
◎片  长 112 分钟
◎导  演 阿尔弗雷德·希区柯克 Alfred Hitchcock
◎编  剧 约翰·迈克尔·海耶斯 John Michael Hayes / 康奈尔·伍尔里奇 Cornell Woolrich
◎主  演 詹姆斯·斯图尔特 James Stewart
       格蕾丝·凯利 Grace Kelly
       温戴尔·柯瑞 Wendell Corey
       瑟尔玛·瑞特 Thelma Ritter
       雷蒙德·布尔 Raymond Burr
       朱迪思·伊夫林 Judith Evelyn
       罗斯·巴格达萨里安 Ross Bagdasarian
       乔金·达西 Georgine Darcy
       萨拉·伯纳 Sara Berner
       弗兰克·卡迪 Frank Cady
       杰丝琳·法克斯 Jesslyn Fax
       艾琳·温斯顿 Irene Winston
       哈维斯·达文波特 Havis Davenport
       本尼·巴莱特 Benny Bartlett
       马拉·英格丽什 Marla English
       贝丝·弗劳尔斯 Bess Flowers
       阿特·吉尔摩 Art Gilmore
       弗莱德·格兰姆 Fred Graham
       凯丝琳·格兰特 Kathryn Grant
       阿尔弗雷德·希区柯克 Alfred Hitchcock
       迈克·马奥尼 Mike Mahoney
       杰克·斯托尼 Jack Stoney
       吉格·杨 Gig Young
       Rand Harper
       Jerry Antes
       Nick Borgani
       Iphigenie Castiglioni
       Don Dunning
       Harry Landers
       Jonni Paris
       Eddie Parker
       Robert Sherman
       Dick Simmons
       Ralph Smiley
       Anthony Warde


◎标  签 希区柯克 | 悬疑 | 美国 | 经典 | 惊悚 | 美国电影 | 1954 | AlfredHitchcock

◎简  介  

  摄影师杰弗里斯(詹姆斯·斯图尔特 饰)因站在赛车道中间拍摄,断了左腿,只得在家静养七周。除了保险公司的护士斯特拉(西尔玛·里特 饰)和女友丽莎·卡罗尔·弗里蒙特(格雷斯·凯利 饰)每日前来照料,百无聊赖的杰弗里斯只能在窗前闲看邻居们的日常生活以打发时间。对面公寓的二楼住着人造珠宝推销员拉尔斯·托瓦尔德(雷蒙德·伯尔 饰)及妻子安娜(艾琳·温斯顿 饰),夫妻之间争吵不断。一个雨夜,杰弗里斯看到拉尔斯提着箱子外出数次。次日,杰弗里斯又看到拉尔斯用报纸包裹一把锯和一把刀。杰弗里斯起了疑心,他怀疑拉尔斯杀害了安娜并分尸抛弃。然而,杰弗里斯并未目击案发过程,也未见到尸体。那么真相究竟如何呢?杰弗里斯的推测只是他的臆想吗?为了证实他的推测,杰弗里斯要如何寻找证据呢?

◎获奖情况  

  第27届奥斯卡金像奖(1955)
  最佳导演(提名) 阿尔弗雷德·希区柯克
  最佳编剧(提名) 约翰·迈克尔·海耶斯
  彩色片最佳摄影(提名) 罗伯特·伯克斯
  最佳录音(提名) 洛伦·L·里德

  第15届威尼斯电影节(1954)
  主竞赛单元 金狮奖 (提名) 阿尔弗雷德·希区柯克


Video
ID                                       : 1
Format                                   : HEVC
Format/Info                              : High Efficiency Video Coding
Format profile                           : Main 10@L5.1@High
HDR format                               : SMPTE ST 2086, HDR10 compatible
Codec ID                                 : V_MPEGH/ISO/HEVC
Duration                                 : 1 h 52 min
Bit rate                                 : 34.1 Mb/s
Width                                    : 3 590 pixels
Height                                   : 2 160 pixels
Display aspect ratio                     : 5:3
Frame rate mode                          : Constant
Frame rate                               : 23.976 (24000/1001/34539) FPS
Color space                              : YUV
Chroma subsampling                       : 4:2:0 (Type 2)
Bit depth                                : 10 bits
Bits/(Pixel*Frame)                       : 0.183
Stream size                              : 26.8 GiB (93%)
Title                                    : Rear.Window.1954.2160p.UHD.BluRay.x265.10bit.HDR.DTS-HD.MA.2.0-SWTYBLZ
Writing library                          : x265 3.0_Au+10-74a8672ea4f7:[Windows][GCC 8.2.1][64 bit] 10bit
Encoding settings                        : cpuid=1111039 / frame-threads=6 / numa-pools=40 / wpp / no-pmode / no-pme / no-psnr / no-ssim / log-level=2 / input-csp=1 / input-res=3590x2160 / interlace=0 / total-frames=0 / level-idc=51 / high-tier=1 / uhd-bd=0 / ref=3 / no-allow-non-conformance / repeat-headers / annexb / aud / hrd / info / hash=0 / no-temporal-layers / no-open-gop / min-keyint=1 / keyint=24 / gop-lookahead=0 / bframes=4 / b-adapt=2 / b-pyramid / bframe-bias=0 / rc-lookahead=25 / lookahead-slices=4 / scenecut=40 / radl=0 / no-splice / no-intra-refresh / ctu=64 / min-cu-size=8 / no-rect / no-amp / max-tu-size=32 / tu-inter-depth=1 / tu-intra-depth=1 / limit-tu=0 / rdoq-level=0 / dynamic-rd=0.00 / no-ssim-rd / signhide / no-tskip / nr-intra=0 / nr-inter=0 / no-constrained-intra / strong-intra-smoothing / max-merge=2 / limit-refs=3 / no-limit-modes / me=1 / subme=2 / merange=57 / temporal-mvp / weightp / no-weightb / no-analyze-src-pics / deblock=0:0 / no-sao / no-sao-non-deblock / rd=3 / no-early-skip / rskip / no-fast-intra / no-tskip-fast / no-cu-lossless / no-b-intra / no-splitrd-skip / rdpenalty=0 / psy-rd=2.00 / psy-rdoq=0.00 / no-rd-refine / no-lossless / cbqpoffs=0 / crqpoffs=0 / rc=crf / crf=16.0 / qcomp=0.60 / qpstep=4 / stats-write=0 / stats-read=0 / vbv-maxrate=160000 / vbv-bufsize=160000 / vbv-init=0.9 / crf-max=0.0 / crf-min=0.0 / ipratio=1.40 / pbratio=1.30 / aq-mode=1 / aq-strength=1.00 / cutree / zone-count=0 / no-strict-cbr / qg-size=32 / no-rc-grain / qpmax=69 / qpmin=0 / no-const-vbv / sar=1 / overscan=0 / videoformat=5 / range=0 / colorprim=9 / transfer=16 / colormatrix=9 / chromaloc=1 / chromaloc-top=2 / chromaloc-bottom=2 / display-window=0 / master-display=G(13250,34500)B(7500,3000)R(34000,16000)WP(15635,16450)L(10000000,50) / max-cll=1000,29 / min-luma=0 / max-luma=1023 / log2-max-poc-lsb=8 / vui-timing-info / vui-hrd-info / slices=1 / opt-qp-pps / opt-ref-list-length-pps / no-multi-pass-opt-rps / scenecut-bias=0.05 / no-opt-cu-delta-qp / no-aq-motion / hdr / hdr-opt / no-dhdr10-opt / no-idr-recovery-sei / analysis-reuse-level=5 / scale-factor=0 / refine-intra=0 / refine-inter=0 / refine-mv=0 / refine-ctu-distortion=0 / no-limit-sao / ctu-info=0 / no-lowpass-dct / refine-analysis-type=0 / copy-pic=1 / max-ausize-factor=1.0 / no-dynamic-refine / no-single-sei / no-hevc-aq / no-svt / qp-adaptation-range=1.00
Language                                 : English
Default                                  : Yes
Forced                                   : No
Color range                              : Limited
Color primaries                          : BT.2020
Transfer characteristics                 : PQ
Matrix coefficients                      : BT.2020 non-constant
Mastering display color primaries        : Display P3
Mastering display luminance              : min: 0.0050 cd/m2, max: 1000 cd/m2
Maximum Content Light Level              : 1000 cd/m2
Maximum Frame-Average Light Level        : 29 cd/m2

Audio #1
ID                                       : 2
ID in the original source medium         : 4352 (0x1100)
Format                                   : DTS XLL
Format/Info                              : Digital Theater Systems
Commercial name                          : DTS-HD Master Audio
Codec ID                                 : A_DTS
Duration                                 : 1 h 52 min
Bit rate mode                            : Variable
Bit rate                                 : 1 771 kb/s
Channel(s)                               : 2 channels
Channel layout                           : L R
Sampling rate                            : 48.0 kHz
Frame rate                               : 93.750 FPS (512 SPF)
Bit depth                                : 24 bits
Compression mode                         : Lossless
Stream size                              : 1.39 GiB (5%)
Title                                    : Rear.Window.1954.2160p.UHD.BluRay.x265.10bit.HDR.DTS-HD.MA.2.0-SWTYBLZ
Language                                 : English
Default                                  : Yes
Forced                                   : No
Original source medium                   : Blu-ray

Audio #2
ID                                       : 3
Format                                   : AC-3
Format/Info                              : Audio Coding 3
Commercial name                          : Dolby Digital
Codec ID                                 : A_AC3
Duration                                 : 1 h 52 min
Bit rate mode                            : Constant
Bit rate                                 : 640 kb/s
Channel(s)                               : 2 channels
Channel layout                           : L R
Sampling rate                            : 48.0 kHz
Frame rate                               : 31.250 FPS (1536 SPF)
Compression mode                         : Lossy
Stream size                              : 515 MiB (2%)
Title                                    : Rear.Window.1954.2160p.UHD.BluRay.x265.10bit.HDR.DTS-HD.MA.2.0-SWTYBLZ
Language                                 : English
Service kind                             : Complete Main
Default                                  : No
Forced                                   : No

Text #1
ID                                       : 4
Format                                   : UTF-8
Codec ID                                 : S_TEXT/UTF8
Codec ID/Info                            : UTF-8 Plain Text
Duration                                 : 1 h 49 min
Bit rate                                 : 63 b/s
Count of elements                        : 1381
Stream size                              : 51.1 KiB (0%)
Title                                    : English-SRT
Language                                 : English
Default                                  : Yes
Forced                                   : No

Text #2
ID                                       : 5
ID in the original source medium         : 4768 (0x12A0)
Format                                   : PGS
Muxing mode                              : zlib
Codec ID                                 : S_HDMV/PGS
Codec ID/Info                            : Picture based subtitle format used on BDs/HD-DVDs
Duration                                 : 1 h 49 min
Bit rate                                 : 43.7 kb/s
Count of elements                        : 2888
Stream size                              : 34.3 MiB (0%)
Title                                    : English-PGS
Language                                 : English
Default                                  : No
Forced                                   : No
Original source medium                   : Blu-ray

Text #3
ID                                       : 6
ID in the original source medium         : 4769 (0x12A1)
Format                                   : PGS
Muxing mode                              : zlib
Codec ID                                 : S_HDMV/PGS
Codec ID/Info                            : Picture based subtitle format used on BDs/HD-DVDs
Duration                                 : 1 h 49 min
Bit rate                                 : 35.5 kb/s
Count of elements                        : 2432
Stream size                              : 27.9 MiB (0%)
Title                                    : French-PGS
Language                                 : French
Default                                  : No
Forced                                   : No
Original source medium                   : Blu-ray

Text #4
ID                                       : 7
ID in the original source medium         : 4770 (0x12A2)
Format                                   : PGS
Muxing mode                              : zlib
Codec ID                                 : S_HDMV/PGS
Codec ID/Info                            : Picture based subtitle format used on BDs/HD-DVDs
Duration                                 : 1 h 49 min
Bit rate                                 : 40.3 kb/s
Count of elements                        : 2430
Stream size                              : 31.7 MiB (0%)
Title                                    : German-PGS
Language                                 : German
Default                                  : No
Forced                                   : No
Original source medium                   : Blu-ray

Text #5
ID                                       : 8
ID in the original source medium         : 4771 (0x12A3)
Format                                   : PGS
Muxing mode                              : zlib
Codec ID                                 : S_HDMV/PGS
Codec ID/Info                            : Picture based subtitle format used on BDs/HD-DVDs
Duration                                 : 1 h 49 min
Bit rate                                 : 35.9 kb/s
Count of elements                        : 2428
Stream size                              : 28.2 MiB (0%)
Title                                    : Italian-PGS
Language                                 : Italian
Default                                  : No
Forced                                   : No
Original source medium                   : Blu-ray

Text #6
ID                                       : 9
ID in the original source medium         : 4772 (0x12A4)
Format                                   : PGS
Muxing mode                              : zlib
Codec ID                                 : S_HDMV/PGS
Codec ID/Info                            : Picture based subtitle format used on BDs/HD-DVDs
Duration                                 : 1 h 49 min
Bit rate                                 : 38.0 kb/s
Count of elements                        : 2430
Stream size                              : 29.9 MiB (0%)
Title                                    : Spanish-PGS
Language                                 : Spanish
Default                                  : No
Forced                                   : No
Original source medium                   : Blu-ray

Text #7
ID                                       : 10
ID in the original source medium         : 4773 (0x12A5)
Format                                   : PGS
Muxing mode                              : zlib
Codec ID                                 : S_HDMV/PGS
Codec ID/Info                            : Picture based subtitle format used on BDs/HD-DVDs
Duration                                 : 1 h 49 min
Bit rate                                 : 29.1 kb/s
Count of elements                        : 1684
Stream size                              : 22.9 MiB (0%)
Title                                    : Dutch-PGS
Language                                 : Dutch
Default                                  : No
Forced                                   : No
Original source medium                   : Blu-ray

Text #8
ID                                       : 11
ID in the original source medium         : 4774 (0x12A6)
Format                                   : PGS
Muxing mode                              : zlib
Codec ID                                 : S_HDMV/PGS
Codec ID/Info                            : Picture based subtitle format used on BDs/HD-DVDs
Duration                                 : 1 h 49 min
Bit rate                                 : 36.3 kb/s
Count of elements                        : 2430
Stream size                              : 28.5 MiB (0%)
Title                                    : Danish-PGS
Language                                 : Danish
Default                                  : No
Forced                                   : No
Original source medium                   : Blu-ray

Text #9
ID                                       : 12
ID in the original source medium         : 4775 (0x12A7)
Format                                   : PGS
Muxing mode                              : zlib
Codec ID                                 : S_HDMV/PGS
Codec ID/Info                            : Picture based subtitle format used on BDs/HD-DVDs
Duration                                 : 1 h 49 min
Bit rate                                 : 35.1 kb/s
Count of elements                        : 2428
Stream size                              : 27.6 MiB (0%)
Title                                    : Finnish-PGS
Language                                 : Finnish
Default                                  : No
Forced                                   : No
Original source medium                   : Blu-ray

Text #10
ID                                       : 13
ID in the original source medium         : 4776 (0x12A8)
Format                                   : PGS
Muxing mode                              : zlib
Codec ID                                 : S_HDMV/PGS
Codec ID/Info                            : Picture based subtitle format used on BDs/HD-DVDs
Duration                                 : 1 h 49 min
Bit rate                                 : 31.8 kb/s
Count of elements                        : 2430
Stream size                              : 25.0 MiB (0%)
Title                                    : Norwegian-PGS
Language                                 : Norwegian
Default                                  : No
Forced                                   : No
Original source medium                   : Blu-ray

Text #11
ID                                       : 14
ID in the original source medium         : 4777 (0x12A9)
Format                                   : PGS
Muxing mode                              : zlib
Codec ID                                 : S_HDMV/PGS
Codec ID/Info                            : Picture based subtitle format used on BDs/HD-DVDs
Duration                                 : 1 h 49 min
Bit rate                                 : 30.0 kb/s
Count of elements                        : 2430
Stream size                              : 23.6 MiB (0%)
Title                                    : Swedish-PGS
Language                                 : Swedish
Default                                  : No
Forced                                   : No
Original source medium                   : Blu-ray

Text #12
ID                                       : 15
ID in the original source medium         : 4778 (0x12AA)
Format                                   : PGS
Muxing mode                              : zlib
Codec ID                                 : S_HDMV/PGS
Codec ID/Info                            : Picture based subtitle format used on BDs/HD-DVDs
Duration                                 : 1 h 51 min
Bit rate                                 : 35.2 kb/s
Count of elements                        : 2200
Stream size                              : 28.1 MiB (0%)
Title                                    : Czech-PGS
Language                                 : Czech
Default                                  : No
Forced                                   : No
Original source medium                   : Blu-ray

Text #13
ID                                       : 16
ID in the original source medium         : 4779 (0x12AB)
Format                                   : PGS
Muxing mode                              : zlib
Codec ID                                 : S_HDMV/PGS
Codec ID/Info                            : Picture based subtitle format used on BDs/HD-DVDs
Duration                                 : 1 h 49 min
Bit rate                                 : 34.7 kb/s
Count of elements                        : 2432
Stream size                              : 27.3 MiB (0%)
Title                                    : Polish-PGS
Language                                 : Polish
Default                                  : No
Forced                                   : No
Original source medium                   : Blu-ray

Text #14
ID                                       : 17
ID in the original source medium         : 4780 (0x12AC)
Format                                   : PGS
Muxing mode                              : zlib
Codec ID                                 : S_HDMV/PGS
Codec ID/Info                            : Picture based subtitle format used on BDs/HD-DVDs
Duration                                 : 1 h 51 min
Bit rate                                 : 35.6 kb/s
Count of elements                        : 2708
Stream size                              : 28.5 MiB (0%)
Title                                    : Hindi-PGS
Language                                 : Hindi
Default                                  : No
Forced                                   : No
Original source medium                   : Blu-ray

Menu
00:00:00.000                             : en:Chapter 01
00:01:36.513                             : en:Chapter 02
00:08:29.383                             : en:Chapter 03
00:15:38.479                             : en:Chapter 04
00:21:26.285                             : en:Chapter 05
00:27:13.798                             : en:Chapter 06
00:32:00.919                             : en:Chapter 07
00:36:38.654                             : en:Chapter 08
00:43:05.207                             : en:Chapter 09
00:53:40.258                             : en:Chapter 10
01:00:52.315                             : en:Chapter 11
01:12:25.507                             : en:Chapter 12
01:18:46.138                             : en:Chapter 13
01:25:06.726                             : en:Chapter 14
01:37:26.298                             : en:Chapter 15
01:44:56.081                             : en:Chapter 16
01:50:36.171                             : en:Chapter 17

悠悠MP4_MP4电影下载_后窗 Rear.Window.1954.2160p.UHD.BluRay.x265.10bit.HDR.DTS-HD.MA.2.0-SWTYBLZ 28.88GB 悠悠MP4_MP4电影下载_后窗 Rear.Window.1954.2160p.UHD.BluRay.x265.10bit.HDR.DTS-HD.MA.2.0-SWTYBLZ 28.88GB 悠悠MP4_MP4电影下载_后窗 Rear.Window.1954.2160p.UHD.BluRay.x265.10bit.HDR.DTS-HD.MA.2.0-SWTYBLZ 28.88GB 悠悠MP4_MP4电影下载_后窗 Rear.Window.1954.2160p.UHD.BluRay.x265.10bit.HDR.DTS-HD.MA.2.0-SWTYBLZ 28.88GB 悠悠MP4_MP4电影下载_后窗 Rear.Window.1954.2160p.UHD.BluRay.x265.10bit.HDR.DTS-HD.MA.2.0-SWTYBLZ 28.88GB 悠悠MP4_MP4电影下载_后窗 Rear.Window.1954.2160p.UHD.BluRay.x265.10bit.HDR.DTS-HD.MA.2.0-SWTYBLZ 28.88GB 悠悠MP4_MP4电影下载_后窗 Rear.Window.1954.2160p.UHD.BluRay.x265.10bit.HDR.DTS-HD.MA.2.0-SWTYBLZ 28.88GB 悠悠MP4_MP4电影下载_后窗 Rear.Window.1954.2160p.UHD.BluRay.x265.10bit.HDR.DTS-HD.MA.2.0-SWTYBLZ 28.88GB

提示:如迅雷下载提示"任务出错"、"因版权无法下载",请尝试【迅雷5】
上传的附件:
最新回复 (0)
返回
本站所有资源均收集自互联网,没有提供影片资源存储, 也未参与录制、上传,若本站收录的资源无意侵犯了您的权益, 请联系邮箱:gogoimgs#gmail.com(#=@)