[更早] [欧美] [喜剧] [BD-4K] 女巫也疯狂/神猫救世界 Hocus.Pocus.1993.2160p.UHD.BluRay.x265.10bit.HDR.DTS-HD.MA.5.1-SWTYBLZ 26.05GB

uump4 12天前 106

悠悠MP4_MP4电影下载_女巫也疯狂/神猫救世界 Hocus.Pocus.1993.2160p.UHD.BluRay.x265.10bit.HDR.DTS-HD.MA.5.1-SWTYBLZ 26.05GB
悠悠MP4_MP4电影下载_女巫也疯狂/神猫救世界 Hocus.Pocus.1993.2160p.UHD.BluRay.x265.10bit.HDR.DTS-HD.MA.5.1-SWTYBLZ 26.05GB

◎译  名 女巫也疯狂 / 神猫救世界
◎片  名 Hocus Pocus
◎年  代 1993
◎产  地 美国
◎类  别 喜剧 / 恐怖 / 家庭 / 奇幻
◎语  言 英语
◎上映日期 1993-07-16
◎IMDb评分  6.9/10 from 91034 users
◎IMDb链接  https://www.imdb.com/title/tt0107120
◎豆瓣评分 6.7/10 from 598 users
◎豆瓣链接 https://movie.douban.com/subject/1300448/
◎片  长 96 分钟
◎导  演 肯尼·奥特加 Kenny Ortega
◎编  剧 米克·加里斯 Mick Garris / Neil Cuthbert / David Kirschner
◎主  演 莎拉·杰茜卡·帕克 Sarah Jessica Parker
       凯茜·纳基麦 Kathy Najimy
       索拉·伯奇 Thora Birch
       潘妮·马歇尔 Penny Marshall
       Joseph Malone
       Jordan Redmond
       唐·耶索 Don Yesso
       道格·琼斯 Doug Jones
       杰森·马斯登 Jason Marsden
       诺伯特·魏塞尔 Norbert Weisser
       托比亚斯·耶利内克 Tobias Jelinek
       凡妮莎·肖 Vinessa Shaw
       佩吉·霍姆斯 Peggy Holmes
       盖瑞·马歇尔 Garry Marshall
       查尔斯·罗基特 Charles Rocket
       Taylor Stanley
       Jodie Rivera
       凯瑟琳·弗里曼 Kathleen Freeman
       尚恩·穆雷 Sean Murray
       欧姆里·卡兹 Omri Katz
       斯蒂芬妮·法拉希 Stephanie Faracy
       克里斯·亨利·科菲 Chris Henry Coffey
       拉里·巴格比 Larry Bagby
       贝特·米德勒 Bette Midler


◎标  签 魔幻 | 美国 | 喜剧 | 女巫也疯狂 | 奇幻 | 1993 | 美国电影 | 鬼怪神灵

◎简  介  

  故事发生在万圣节的夜晚,男孩马克思(欧姆里·卡兹 Omri Katz 饰)在误打误撞之中点燃了邪恶的蜡烛,将在三百年前早已经死去的三名女巫威尼弗雷德(贝特·米德勒 Bette Midler 饰)、莎拉(莎拉·杰西卡·帕克 Sarah Jessica Parker 饰)和马莉(凯茜·纳基麦 Kathy Najimy 饰)从地狱召唤回了人间。很久很久以前,这三名女巫因为吸食小孩的精气而被判以死刑,如今,再度回到阳间的她们决定重蹈覆辙。得知了女巫们的阴谋,马克思决定绝不坐视不管。他找到了妹妹丹尼(索拉·伯奇 Thora Birch 饰)和好友艾莉森(凡妮莎·肖 Vinessa Shaw 饰)三人一起行动,计划破坏女巫们的行动。留给孩子们的时间已经很少了。


Video

ID                                       : 1

Format                                   : HEVC

Format/Info                              : High Efficiency Video Coding

Format profile                           : Main 10@L5.1@High

HDR format                               : SMPTE ST 2086, HDR10 compatible

Codec ID                                 : V_MPEGH/ISO/HEVC

Duration                                 : 1 h 36 min

Bit rate                                 : 33.7 Mb/s

Width                                    : 3 840 pixels

Height                                   : 2 076 pixels

Display aspect ratio                     : 1.85:1

Frame rate mode                          : Constant

Frame rate                               : 23.976 (24000/1001/34539) FPS

Color space                              : YUV

Chroma subsampling                       : 4:2:0 (Type 2)

Bit depth                                : 10 bits

Bits/(Pixel*Frame)                       : 0.176

Stream size                              : 22.6 GiB (87%)

Title                                    : Hocus.Pocus.1993.2160p.UHD.BluRay.x265.10bit.HDR.DTS-HD.MA.5.1-SWTYBLZ

Writing library                          : x265 3.0_Au+10-74a8672ea4f7:[Windows][GCC 8.2.1][64 bit] 10bit

Encoding settings                        : cpuid=1111039 / frame-threads=6 / numa-pools=40 / wpp / no-pmode / no-pme / no-psnr / no-ssim / log-level=2 / input-csp=1 / input-res=3840x2076 / interlace=0 / total-frames=0 / level-idc=51 / high-tier=1 / uhd-bd=0 / ref=3 / no-allow-non-conformance / repeat-headers / annexb / aud / hrd / info / hash=0 / no-temporal-layers / no-open-gop / min-keyint=1 / keyint=24 / gop-lookahead=0 / bframes=4 / b-adapt=2 / b-pyramid / bframe-bias=0 / rc-lookahead=25 / lookahead-slices=4 / scenecut=40 / radl=0 / no-splice / no-intra-refresh / ctu=64 / min-cu-size=8 / no-rect / no-amp / max-tu-size=32 / tu-inter-depth=1 / tu-intra-depth=1 / limit-tu=0 / rdoq-level=0 / dynamic-rd=0.00 / no-ssim-rd / signhide / no-tskip / nr-intra=0 / nr-inter=0 / no-constrained-intra / strong-intra-smoothing / max-merge=2 / limit-refs=3 / no-limit-modes / me=1 / subme=2 / merange=57 / temporal-mvp / weightp / no-weightb / no-analyze-src-pics / deblock=0:0 / no-sao / no-sao-non-deblock / rd=3 / no-early-skip / rskip / no-fast-intra / no-tskip-fast / no-cu-lossless / no-b-intra / no-splitrd-skip / rdpenalty=0 / psy-rd=2.00 / psy-rdoq=0.00 / no-rd-refine / no-lossless / cbqpoffs=0 / crqpoffs=0 / rc=crf / crf=16.0 / qcomp=0.60 / qpstep=4 / stats-write=0 / stats-read=0 / vbv-maxrate=160000 / vbv-bufsize=160000 / vbv-init=0.9 / crf-max=0.0 / crf-min=0.0 / ipratio=1.40 / pbratio=1.30 / aq-mode=1 / aq-strength=1.00 / cutree / zone-count=0 / no-strict-cbr / qg-size=32 / no-rc-grain / qpmax=69 / qpmin=0 / no-const-vbv / sar=1 / overscan=0 / videoformat=5 / range=0 / colorprim=9 / transfer=16 / colormatrix=9 / chromaloc=1 / chromaloc-top=2 / chromaloc-bottom=2 / display-window=0 / master-display=G(13250,34500)B(7500,3000)R(34000,16000)WP(15635,16450)L(10000000,01) / max-cll=0,0 / min-luma=0 / max-luma=1023 / log2-max-poc-lsb=8 / vui-timing-info / vui-hrd-info / slices=1 / opt-qp-pps / opt-ref-list-length-pps / no-multi-pass-opt-rps / scenecut-bias=0.05 / no-opt-cu-delta-qp / no-aq-motion / hdr / hdr-opt / no-dhdr10-opt / no-idr-recovery-sei / analysis-reuse-level=5 / scale-factor=0 / refine-intra=0 / refine-inter=0 / refine-mv=0 / refine-ctu-distortion=0 / no-limit-sao / ctu-info=0 / no-lowpass-dct / refine-analysis-type=780533408 / copy-pic=1 / max-ausize-factor=1.0 / no-dynamic-refine / no-single-sei / no-hevc-aq / no-svt / qp-adaptation-range=1.00

Language                                 : English

Default                                  : Yes

Forced                                   : No

Color range                              : Limited

Color primaries                          : BT.2020

Transfer characteristics                 : PQ

Matrix coefficients                      : BT.2020 non-constant

Mastering display color primaries        : Display P3

Mastering display luminance              : min: 0.0001 cd/m2, max: 1000 cd/m2



Audio #1

ID                                       : 2

Format                                   : DTS XLL

Format/Info                              : Digital Theater Systems

Commercial name                          : DTS-HD Master Audio

Codec ID                                 : A_DTS

Duration                                 : 1 h 36 min

Bit rate mode                            : Variable

Bit rate                                 : 4 191 kb/s

Channel(s)                               : 6 channels

Channel layout                           : C L R Ls Rs LFE

Sampling rate                            : 48.0 kHz

Frame rate                               : 93.750 FPS (512 SPF)

Bit depth                                : 24 bits

Compression mode                         : Lossless

Stream size                              : 2.81 GiB (11%)

Title                                    : Hocus.Pocus.1993.2160p.UHD.BluRay.x265.10bit.HDR.DTS-HD.MA.5.1-SWTYBLZ

Language                                 : English

Default                                  : Yes

Forced                                   : No



Audio #2

ID                                       : 3

Format                                   : AC-3

Format/Info                              : Audio Coding 3

Commercial name                          : Dolby Digital

Codec ID                                 : A_AC3

Duration                                 : 1 h 36 min

Bit rate mode                            : Constant

Bit rate                                 : 640 kb/s

Channel(s)                               : 6 channels

Channel layout                           : L R C LFE Ls Rs

Sampling rate                            : 48.0 kHz

Frame rate                               : 31.250 FPS (1536 SPF)

Compression mode                         : Lossy

Stream size                              : 440 MiB (2%)

Title                                    : Hocus.Pocus.1993.2160p.UHD.BluRay.x265.10bit.HDR.DTS-HD.MA.5.1-SWTYBLZ

Language                                 : English

Service kind                             : Complete Main

Default                                  : No

Forced                                   : No



Text #1

ID                                       : 4

Format                                   : UTF-8

Codec ID                                 : S_TEXT/UTF8

Codec ID/Info                            : UTF-8 Plain Text

Duration                                 : 1 h 32 min

Bit rate                                 : 53 b/s

Count of elements                        : 1496

Stream size                              : 36.4 KiB (0%)

Title                                    : English_SRT

Language                                 : English

Default                                  : Yes

Forced                                   : No



Text #2

ID                                       : 5

Format                                   : PGS

Muxing mode                              : zlib

Codec ID                                 : S_HDMV/PGS

Codec ID/Info                            : Picture based subtitle format used on BDs/HD-DVDs

Duration                                 : 1 h 33 min

Bit rate                                 : 71.9 kb/s

Count of elements                        : 3620

Stream size                              : 48.3 MiB (0%)

Title                                    : English-PGS

Language                                 : English

Default                                  : No

Forced                                   : No



Text #3

ID                                       : 6

Format                                   : PGS

Muxing mode                              : zlib

Codec ID                                 : S_HDMV/PGS

Codec ID/Info                            : Picture based subtitle format used on BDs/HD-DVDs

Duration                                 : 1 h 31 min

Bit rate                                 : 42.4 kb/s

Count of elements                        : 1562

Stream size                              : 27.7 MiB (0%)

Title                                    : French-PGS

Language                                 : French

Default                                  : No

Forced                                   : No



Text #4

ID                                       : 7

Format                                   : PGS

Muxing mode                              : zlib

Codec ID                                 : S_HDMV/PGS

Codec ID/Info                            : Picture based subtitle format used on BDs/HD-DVDs

Duration                                 : 1 h 32 min

Bit rate                                 : 29.3 kb/s

Count of elements                        : 2290

Stream size                              : 19.4 MiB (0%)

Title                                    : Portuguese-PGS

Language                                 : Portuguese

Default                                  : No

Forced                                   : No



Text #5

ID                                       : 8

Format                                   : PGS

Muxing mode                              : zlib

Codec ID                                 : S_HDMV/PGS

Codec ID/Info                            : Picture based subtitle format used on BDs/HD-DVDs

Duration                                 : 1 h 31 min

Bit rate                                 : 48.2 kb/s

Count of elements                        : 2258

Stream size                              : 31.5 MiB (0%)

Title                                    : Spanish-PGS

Language                                 : Spanish

Default                                  : No

Forced                                   : No



Menu

00:00:00.000                             : en:Opening Titles/Life Force Spell

00:08:39.936                             : en:The Legend Of Thackery Binx

00:14:00.465                             : en:New Kid In Town

00:20:19.009                             : en:Trick Or Treat

00:26:45.479                             : en:Black Flame Candle

00:32:10.595                             : en:Return Of The Sanderson Sisters

00:36:42.992                             : en:Hallowed Ground

00:43:58.553                             : en:Bus Ride Into Town

00:48:03.297                             : en:The Master\'s House

00:54:17.629                             : en:Town Hall Party

01:01:22.345                             : en:Witch Burning

01:06:02.167                             : en:Ugly Chicks Stay Up Late

01:08:21.723                             : en:Opening The Book

01:14:38.849                             : en:Come, Little Children

01:21:29.343                             : en:Winifred\'s Potion

01:29:09.553                             : en:The Spell Is Broken/End Credits


悠悠MP4_MP4电影下载_女巫也疯狂/神猫救世界 Hocus.Pocus.1993.2160p.UHD.BluRay.x265.10bit.HDR.DTS-HD.MA.5.1-SWTYBLZ 26.05GB悠悠MP4_MP4电影下载_女巫也疯狂/神猫救世界 Hocus.Pocus.1993.2160p.UHD.BluRay.x265.10bit.HDR.DTS-HD.MA.5.1-SWTYBLZ 26.05GB悠悠MP4_MP4电影下载_女巫也疯狂/神猫救世界 Hocus.Pocus.1993.2160p.UHD.BluRay.x265.10bit.HDR.DTS-HD.MA.5.1-SWTYBLZ 26.05GB悠悠MP4_MP4电影下载_女巫也疯狂/神猫救世界 Hocus.Pocus.1993.2160p.UHD.BluRay.x265.10bit.HDR.DTS-HD.MA.5.1-SWTYBLZ 26.05GB悠悠MP4_MP4电影下载_女巫也疯狂/神猫救世界 Hocus.Pocus.1993.2160p.UHD.BluRay.x265.10bit.HDR.DTS-HD.MA.5.1-SWTYBLZ 26.05GB悠悠MP4_MP4电影下载_女巫也疯狂/神猫救世界 Hocus.Pocus.1993.2160p.UHD.BluRay.x265.10bit.HDR.DTS-HD.MA.5.1-SWTYBLZ 26.05GB悠悠MP4_MP4电影下载_女巫也疯狂/神猫救世界 Hocus.Pocus.1993.2160p.UHD.BluRay.x265.10bit.HDR.DTS-HD.MA.5.1-SWTYBLZ 26.05GB悠悠MP4_MP4电影下载_女巫也疯狂/神猫救世界 Hocus.Pocus.1993.2160p.UHD.BluRay.x265.10bit.HDR.DTS-HD.MA.5.1-SWTYBLZ 26.05GB

                                                                                           

提示:如迅雷下载提示"任务出错"、"因版权无法下载",请尝试【迅雷5】
上传的附件:
最新回复 (0)
返回
本站所有资源均收集自互联网,没有提供影片资源存储, 也未参与录制、上传,若本站收录的资源无意侵犯了您的权益, 请联系邮箱:gogoimgs#gmail.com(#=@)