[2017] [其他] [喜剧] [WEB-1080P] 闪光少女 Our.Shining.Days.2017.CHINESE.1080p.NF.WEBRip.DDP5.1.x264-NOGRP 5.83GB

uump4 9天前 255

悠悠MP4_MP4电影下载_闪光少女 Our.Shining.Days.2017.CHINESE.1080p.NF.WEBRip.DDP5.1.x264-NOGRP 5.83GB
悠悠MP4_MP4电影下载_闪光少女 Our.Shining.Days.2017.CHINESE.1080p.NF.WEBRip.DDP5.1.x264-NOGRP 5.83GB

◎译  名 Our Shining Days
◎片  名 闪光少女
◎年  代 2017
◎产  地 中国大陆
◎类  别 喜剧 / 音乐
◎语  言 汉语普通话
◎上映日期 2017-06-18(上海电影节) / 2017-07-20(中国大陆)
◎IMDb评分  6.9/10 from 502 users
◎IMDb链接  https://www.imdb.com/title/tt7013194
◎豆瓣评分 7.3/10 from 217711 users
◎豆瓣链接 https://movie.douban.com/subject/26790961/
◎片  长 103分钟
◎导  演 王冉 Ran Wang
◎编  剧 鲍鲸鲸 Jingjing Bao
◎主  演 徐璐 Lu Xu
       彭昱畅 Yuchang Peng
       刘泳希 Yongxi Liu
       鲁照华 Zhaohua Lu
       韩忠羽 Eunice Han
       李诺  Nuo Li
       骆明劼 Mingjie Luo
       陈雨锶 Yusi Chen
       乐思宏 Sihong Le
       崔可法 Kefa Cui
       陆建艺 Jianyi Lu
       陈奕迅 Eason Chan
       汤甄 Zhen Tang
       闫妮 Ni Yan
       耿乐 Le Geng


◎标  签 青春 | 民乐 | 校园 | 二次元 | 音乐 | 古风 | 喜剧 | 中国大陆

◎简  介  

  陈惊(徐璐饰)是一个古灵精怪、敢爱敢恨的姑娘,江湖人称“神经”。作为音乐附中的奇葩人物,陈惊人缘欠佳只有男闺蜜“油渣”(彭昱畅饰)甘愿为她鞍前马后。自信满满的陈惊恋上了校草师哥,不料却遭到校草的嘲笑和奚落,还引起了校园两大院系之间的大混战。为了向师哥证明自己,陈惊联手“502宿舍”神秘人物组成2.5次元乐团,挑战权威、破除成见,上演了一幕幕生猛搞笑的青春趣事。一个懵懂怪力的少女,一场默默守护的爱恋,一群奇葩义气的小伙伴,“神经女孩”如何逆袭成为“闪光少女”?2017年暑期《闪光少女》放肆揭晓——不一样,又怎样!

◎获奖情况  

  第20届上海国际电影节(2017)
  亚洲新人奖 最佳男主角(提名) 彭昱畅
  亚洲新人奖 最佳女主角(提名) 徐璐
  电影频道传媒大奖 最受传媒关注影片
  电影频道传媒大奖 最受传媒关注编剧 鲍鲸鲸
  电影频道传媒大奖 最受传媒关注女配角 刘泳希
  电影频道传媒大奖 最受传媒关注新人导演 王冉
  电影频道传媒大奖 最受传媒关注新人女演员 徐璐
  电影频道传媒大奖(提名)

  第32届中国电影金鸡奖(2019)
  最佳编剧(提名) 鲍鲸鲸
  最佳剪辑(提名) 邝志良 / 白慧玲 / 王冉

  第25届北京大学生电影节(2018)
  最佳编剧奖(提名) 鲍鲸鲸
  最佳处女作奖(提名)
  最佳新人奖(提名) 彭昱畅

  第4届豆瓣电影年度榜单(2017)
  评分最高的华语电影(提名)
  7月最受关注电影(提名)


Video

ID                                       : 1

Format                                   : AVC

Format/Info                              : Advanced Video Codec

Format profile                           : Main@L4

Format settings                          : CABAC / 3 Ref Frames

Format settings, CABAC                   : Yes

Format settings, Reference frames        : 3 frames

Codec ID                                 : V_MPEG4/ISO/AVC

Duration                                 : 1 h 42 min

Bit rate mode                            : Variable

Bit rate                                 : 7 500 kb/s

Maximum bit rate                         : 11.2 Mb/s

Width                                    : 1 920 pixels

Height                                   : 1 080 pixels

Display aspect ratio                     : 16:9

Frame rate mode                          : Constant

Frame rate                               : 24.000 FPS

Color space                              : YUV

Chroma subsampling                       : 4:2:0

Bit depth                                : 8 bits

Scan type                                : Progressive

Bits/(Pixel*Frame)                       : 0.151

Stream size                              : 5.37 GiB (92%)

Writing library                          : x264 core 148 r2715 7e75228

Encoding settings                        : cabac=1 / ref=3 / deblock=1:0:0 / analyse=0x1:0x111 / me=umh / subme=10 / psy=1 / psy_rd=1.00:0.00 / mixed_ref=1 / me_range=24 / chroma_me=1 / trellis=2 / 8x8dct=0 / cqm=0 / deadzone=21,11 / fast_pskip=1 / chroma_qp_offset=-2 / threads=8 / lookahead_threads=1 / sliced_threads=0 / nr=0 / decimate=1 / interlaced=0 / bluray_compat=0 / stitchable=1 / constrained_intra=0 / bframes=2 / b_pyramid=0 / b_adapt=2 / b_bias=0 / direct=3 / weightb=1 / open_gop=0 / weightp=2 / keyint=48 / keyint_min=25 / scenecut=0 / intra_refresh=0 / rc_lookahead=48 / rc=2pass / mbtree=1 / bitrate=7500 / ratetol=1.0 / qcomp=0.50 / qpmin=6 / qpmax=51 / qpstep=4 / cplxblur=20.0 / qblur=0.5 / vbv_maxrate=11250 / vbv_bufsize=15000 / nal_hrd=vbr / filler=0 / ip_ratio=1.40 / aq=1:1.00

Default                                  : Yes

Forced                                   : No



Audio

ID                                       : 2

Format                                   : E-AC-3

Format/Info                              : Enhanced AC-3

Commercial name                          : Dolby Digital Plus

Codec ID                                 : A_EAC3

Duration                                 : 1 h 42 min

Bit rate mode                            : Constant

Bit rate                                 : 640 kb/s

Channel(s)                               : 6 channels

Channel layout                           : L R C LFE Ls Rs

Sampling rate                            : 48.0 kHz

Frame rate                               : 31.250 FPS (1536 SPF)

Compression mode                         : Lossy

Stream size                              : 470 MiB (8%)

Title                                    : Mandarin

Language                                 : Chinese

Service kind                             : Complete Main

Default                                  : No

Forced                                   : No



Text #1

ID                                       : 3

Format                                   : UTF-8

Codec ID                                 : S_TEXT/UTF8

Codec ID/Info                            : UTF-8 Plain Text

Duration                                 : 1 h 36 min

Bit rate                                 : 46 b/s

Count of elements                        : 945

Stream size                              : 32.9 KiB (0%)

Title                                    : English [Full]

Language                                 : English

Default                                  : No

Forced                                   : No



Text #2

ID                                       : 4

Format                                   : UTF-8

Codec ID                                 : S_TEXT/UTF8

Codec ID/Info                            : UTF-8 Plain Text

Duration                                 : 1 h 42 min

Bit rate                                 : 42 b/s

Count of elements                        : 958

Stream size                              : 32.1 KiB (0%)

Title                                    : Spanish [Full]

Language                                 : Spanish

Default                                  : No

Forced                                   : No



Text #3

ID                                       : 5

Format                                   : UTF-8

Codec ID                                 : S_TEXT/UTF8

Codec ID/Info                            : UTF-8 Plain Text

Duration                                 : 1 h 42 min

Bit rate                                 : 40 b/s

Count of elements                        : 930

Stream size                              : 30.7 KiB (0%)

Title                                    : German [Full]

Language                                 : German

Default                                  : No

Forced                                   : No



Text #4

ID                                       : 6

Format                                   : UTF-8

Codec ID                                 : S_TEXT/UTF8

Codec ID/Info                            : UTF-8 Plain Text

Duration                                 : 1 h 38 min

Bit rate                                 : 42 b/s

Count of elements                        : 925

Stream size                              : 30.4 KiB (0%)

Title                                    : Brazilian Portuguese [Full]

Language                                 : Portuguese

Default                                  : No

Forced                                   : No



Text #5

ID                                       : 7

Format                                   : UTF-8

Codec ID                                 : S_TEXT/UTF8

Codec ID/Info                            : UTF-8 Plain Text

Duration                                 : 1 h 42 min

Bit rate                                 : 58 b/s

Count of elements                        : 956

Stream size                              : 44.0 KiB (0%)

Title                                    : Vietnamese [Full]

Language                                 : Vietnamese

Default                                  : No

Forced                                   : No



Text #6

ID                                       : 8

Format                                   : UTF-8

Codec ID                                 : S_TEXT/UTF8

Codec ID/Info                            : UTF-8 Plain Text

Duration                                 : 1 h 42 min

Bit rate                                 : 103 b/s

Count of elements                        : 957

Stream size                              : 77.8 KiB (0%)

Title                                    : Thai [Full]

Language                                 : Thai

Default                                  : No

Forced                                   : No



Text #7

ID                                       : 9

Format                                   : UTF-8

Codec ID                                 : S_TEXT/UTF8

Codec ID/Info                            : UTF-8 Plain Text

Duration                                 : 1 h 42 min

Bit rate                                 : 43 b/s

Count of elements                        : 957

Stream size                              : 32.7 KiB (0%)

Title                                    : Korean [Full]

Language                                 : Korean

Default                                  : No

Forced                                   : No



Text #8

ID                                       : 10

Format                                   : UTF-8

Codec ID                                 : S_TEXT/UTF8

Codec ID/Info                            : UTF-8 Plain Text

Duration                                 : 25 min 7 s

Bit rate                                 : 1 b/s

Count of elements                        : 12

Stream size                              : 259 Bytes (0%)

Title                                    : Chinese (Simplified) [Forced]

Language                                 : Chinese

Default                                  : No

Forced                                   : Yes



Text #9

ID                                       : 11

Format                                   : UTF-8

Codec ID                                 : S_TEXT/UTF8

Codec ID/Info                            : UTF-8 Plain Text

Duration                                 : 1 h 36 min

Bit rate                                 : 34 b/s

Count of elements                        : 907

Stream size                              : 24.4 KiB (0%)

Title                                    : Chinese (Simplified) [Full]

Language                                 : Chinese

Default                                  : No

Forced                                   : No



Text #10

ID                                       : 12

Format                                   : UTF-8

Codec ID                                 : S_TEXT/UTF8

Codec ID/Info                            : UTF-8 Plain Text

Duration                                 : 1 h 36 min

Bit rate                                 : 34 b/s

Count of elements                        : 907

Stream size                              : 24.8 KiB (0%)

Title                                    : Chinese (Traditional) [Full]

Language                                 : Chinese

Default                                  : No

Forced                                   : No

悠悠MP4_MP4电影下载_闪光少女 Our.Shining.Days.2017.CHINESE.1080p.NF.WEBRip.DDP5.1.x264-NOGRP 5.83GB 悠悠MP4_MP4电影下载_闪光少女 Our.Shining.Days.2017.CHINESE.1080p.NF.WEBRip.DDP5.1.x264-NOGRP 5.83GB 悠悠MP4_MP4电影下载_闪光少女 Our.Shining.Days.2017.CHINESE.1080p.NF.WEBRip.DDP5.1.x264-NOGRP 5.83GB

提示:如迅雷下载提示"任务出错"、"因版权无法下载",请尝试【迅雷5】
上传的附件:
最新回复 (0)
返回
本站所有资源均收集自互联网,没有提供影片资源存储, 也未参与录制、上传,若本站收录的资源无意侵犯了您的权益, 请联系邮箱:gogoimgs#gmail.com(#=@)