[2015] [其他] [其他] [WEB-1080P] 非家庭电影/不是家庭电影 No.Home.Movie.2015.FRENCH.ENSUBBED.1080p.AMZN.WEBRip.DDP2.0.x264-Cinefeel 9.23GB

uump4 10天前 165

悠悠MP4_MP4电影下载_非家庭电影/不是家庭电影 No.Home.Movie.2015.FRENCH.ENSUBBED.1080p.AMZN.WEBRip.DDP2.0.x264-Cinefeel 9.23GB
悠悠MP4_MP4电影下载_非家庭电影/不是家庭电影 No.Home.Movie.2015.FRENCH.ENSUBBED.1080p.AMZN.WEBRip.DDP2.0.x264-Cinefeel 9.23GB

◎译  名 非家庭电影 / 不是家庭电影 / 无家电影
◎片  名 No Home Movie
◎年  代 2015
◎产  地 比利时 / 法国
◎类  别 纪录片
◎语  言 法语 / 英语
◎上映日期 2015-08-10(洛迦诺电影节)
◎IMDb评分  6.7/10 from 680 users
◎IMDb链接  https://www.imdb.com/title/tt4881016
◎豆瓣评分 7.5/10 from 415 users
◎豆瓣链接 https://movie.douban.com/subject/26550259/
◎片  长 115分钟
◎导  演 香特尔·阿克曼 Chantal Akerman
◎编  剧 香特尔·阿克曼 Chantal Akerman
◎主  演 香特尔·阿克曼 Chantal Akerman


◎标  签 纪录片 | 比利时 | 香特尔·阿克曼 | 2015 | 法国 | ChantalAkerman | Chantal_Akerman | 2010s

◎简  介  

  英国《视与听》杂志2015年度十佳电影的NO.6,也是比利时女导演香特尔?阿克曼的遗作,一部关于去世的母亲的纪录片。

◎获奖情况  

  第68届洛迦诺国际电影节(2015)
  金豹奖(提名) 香特尔·阿克曼


Video

ID                                       : 1

Format                                   : AVC

Format/Info                              : Advanced Video Codec

Format profile                           : High@L4

Format settings                          : CABAC / 4 Ref Frames

Format settings, CABAC                   : Yes

Format settings, Reference frames        : 4 frames

Codec ID                                 : V_MPEG4/ISO/AVC

Duration                                 : 1 h 52 min

Bit rate mode                            : Variable

Bit rate                                 : 11.5 Mb/s

Maximum bit rate                         : 15.0 Mb/s

Width                                    : 1 920 pixels

Height                                   : 1 080 pixels

Display aspect ratio                     : 16:9

Frame rate mode                          : Constant

Frame rate                               : 25.000 FPS

Color space                              : YUV

Chroma subsampling                       : 4:2:0

Bit depth                                : 8 bits

Scan type                                : Progressive

Bits/(Pixel*Frame)                       : 0.222

Stream size                              : 9.05 GiB (98%)

Default                                  : Yes

Forced                                   : No

Color range                              : Limited

Color primaries                          : BT.709

Transfer characteristics                 : BT.709

Matrix coefficients                      : BT.709



Audio

ID                                       : 2

Format                                   : E-AC-3

Format/Info                              : Enhanced AC-3

Commercial name                          : Dolby Digital Plus

Codec ID                                 : A_EAC3

Duration                                 : 1 h 52 min

Bit rate mode                            : Constant

Bit rate                                 : 224 kb/s

Channel(s)                               : 2 channels

Channel layout                           : L R

Sampling rate                            : 48.0 kHz

Frame rate                               : 31.250 FPS (1536 SPF)

Compression mode                         : Lossy

Stream size                              : 181 MiB (2%)

Language                                 : French

Service kind                             : Complete Main

Default                                  : Yes

Forced                                   : No


悠悠MP4_MP4电影下载_非家庭电影/不是家庭电影 No.Home.Movie.2015.FRENCH.ENSUBBED.1080p.AMZN.WEBRip.DDP2.0.x264-Cinefeel 9.23GB悠悠MP4_MP4电影下载_非家庭电影/不是家庭电影 No.Home.Movie.2015.FRENCH.ENSUBBED.1080p.AMZN.WEBRip.DDP2.0.x264-Cinefeel 9.23GB悠悠MP4_MP4电影下载_非家庭电影/不是家庭电影 No.Home.Movie.2015.FRENCH.ENSUBBED.1080p.AMZN.WEBRip.DDP2.0.x264-Cinefeel 9.23GB

                                                                                           

提示:如迅雷下载提示"任务出错"、"因版权无法下载",请尝试【迅雷5】
上传的附件:
最新回复 (0)
返回
本站所有资源均收集自互联网,没有提供影片资源存储, 也未参与录制、上传,若本站收录的资源无意侵犯了您的权益, 请联系邮箱:gogoimgs#gmail.com(#=@)