[2017] [其他] [其他] [WEB-1080P] 墙的另一边 The.Other.Side.of.The.Wall.2017.SPANISH.ENSUBBED.1080p.AMZN.WEBRip.DDP2.0.x264-TEPES 4.56GB

uump4 14天前 180

悠悠MP4_MP4电影下载_墙的另一边 The.Other.Side.of.The.Wall.2017.SPANISH.ENSUBBED.1080p.AMZN.WEBRip.DDP2.0.x264-TEPES 4.56GB
悠悠MP4_MP4电影下载_墙的另一边 The.Other.Side.of.The.Wall.2017.SPANISH.ENSUBBED.1080p.AMZN.WEBRip.DDP2.0.x264-TEPES 4.56GB

◎译  名 墙的另一边 / The Other Side of the Wall
◎片  名 Al otro lado del muro
◎年  代 2017
◎产  地 西班牙 / 墨西哥
◎类  别 纪录片
◎语  言 西班牙语
◎上映日期 2017-03(墨西哥)
◎IMDb评分  7.4/10 from 37 users
◎IMDb链接  https://www.imdb.com/title/tt6744624
◎豆瓣评分 0/10 from 0 users
◎豆瓣链接 https://movie.douban.com/subject/30301430/
◎片  长 68分钟

◎标  签 墨西哥

◎简  介  

  暂无相关剧情介绍


Video

ID                                       : 1

Format                                   : AVC

Format/Info                              : Advanced Video Codec

Format profile                           : High@L4

Format settings                          : CABAC / 4 Ref Frames

Format settings, CABAC                   : Yes

Format settings, Reference frames        : 4 frames

Codec ID                                 : V_MPEG4/ISO/AVC

Duration                                 : 1 h 8 min

Bit rate mode                            : Constant

Bit rate                                 : 9 317 kb/s

Nominal bit rate                         : 10 000 kb/s

Width                                    : 1 920 pixels

Height                                   : 1 080 pixels

Display aspect ratio                     : 16:9

Frame rate mode                          : Constant

Frame rate                               : 25.000 FPS

Color space                              : YUV

Chroma subsampling                       : 4:2:0

Bit depth                                : 8 bits

Scan type                                : Progressive

Bits/(Pixel*Frame)                       : 0.180

Stream size                              : 4.45 GiB (98%)

Default                                  : Yes

Forced                                   : No

Color range                              : Limited

Color primaries                          : BT.709

Transfer characteristics                 : BT.709

Matrix coefficients                      : BT.709



Audio

ID                                       : 2

Format                                   : E-AC-3

Format/Info                              : Enhanced AC-3

Commercial name                          : Dolby Digital Plus

Codec ID                                 : A_EAC3

Duration                                 : 1 h 8 min

Bit rate mode                            : Constant

Bit rate                                 : 224 kb/s

Channel(s)                               : 2 channels

Channel layout                           : L R

Sampling rate                            : 48.0 kHz

Frame rate                               : 31.250 FPS (1536 SPF)

Compression mode                         : Lossy

Stream size                              : 110 MiB (2%)

Language                                 : Spanish

Service kind                             : Complete Main

Default                                  : Yes

Forced                                   : No



Text

ID                                       : 3

Format                                   : UTF-8

Codec ID                                 : S_TEXT/UTF8

Codec ID/Info                            : UTF-8 Plain Text

Duration                                 : 50 min 59 s

Bit rate                                 : 49 b/s

Count of elements                        : 657

Stream size                              : 18.7 KiB (0%)

Title                                    : English

Language                                 : English

Default                                  : Yes

Forced                                   : No


悠悠MP4_MP4电影下载_墙的另一边 The.Other.Side.of.The.Wall.2017.SPANISH.ENSUBBED.1080p.AMZN.WEBRip.DDP2.0.x264-TEPES 4.56GB悠悠MP4_MP4电影下载_墙的另一边 The.Other.Side.of.The.Wall.2017.SPANISH.ENSUBBED.1080p.AMZN.WEBRip.DDP2.0.x264-TEPES 4.56GB悠悠MP4_MP4电影下载_墙的另一边 The.Other.Side.of.The.Wall.2017.SPANISH.ENSUBBED.1080p.AMZN.WEBRip.DDP2.0.x264-TEPES 4.56GB

                                                                                           

提示:如迅雷下载提示"任务出错"、"因版权无法下载",请尝试【迅雷5】
上传的附件:
最新回复 (0)
返回
本站所有资源均收集自互联网,没有提供影片资源存储, 也未参与录制、上传,若本站收录的资源无意侵犯了您的权益, 请联系邮箱:gogoimgs#gmail.com(#=@)