[2013] [其他] [剧情] [WEB-1080P] 我们是玛丽·佩帕 We.Are.Mari.Pepa.2013.SPANISH.1080p.AMZN.WEBRip.DDP2.0.x264-TEPES 4.76GB

uump4 14天前 136

悠悠MP4_MP4电影下载_我们是玛丽·佩帕 We.Are.Mari.Pepa.2013.SPANISH.1080p.AMZN.WEBRip.DDP2.0.x264-TEPES 4.76GB
悠悠MP4_MP4电影下载_我们是玛丽·佩帕 We.Are.Mari.Pepa.2013.SPANISH.1080p.AMZN.WEBRip.DDP2.0.x264-TEPES 4.76GB

◎译  名 我们是玛丽·佩帕 / We Are Mari Pepa
◎片  名 Somos Mari Pepa
◎年  代 2013
◎产  地 墨西哥
◎类  别 剧情 / 喜剧
◎语  言 西班牙语
◎IMDb评分  7.0/10 from 233 users
◎IMDb链接  https://www.imdb.com/title/tt2977654
◎豆瓣评分 0/10 from 0 users
◎豆瓣链接 https://movie.douban.com/subject/25794000/
◎片  长 95分钟
◎导  演 塞缪尔·基希 Samuel Kishi
◎编  剧 塞缪尔·基希 Samuel Kishi

◎标  签 墨西哥 | P-BerlinF新生代单元

◎简  介  

  Alex has big plans for his summer. He hopes to get a girlfriend, make money with a new job, learn a new song with his band Mari Pepa, and win the upcoming “battle of the bands” concert. His summer expectations quickly become impossible to fulfill as he realizes everything in his life is shifting.

  谷歌为您翻译:
  亚历克斯为自己的暑假制定了宏伟的计划。他希望找到一个女朋友,找一份新工作赚钱,与他的乐队Mari Pepa学习一首新歌,并赢得即将举行的“乐队之战”音乐会。随着他意识到生活中的一切都在发生变化,他对夏天的期望很快变得无法实现。

  腾讯为您翻译:
  亚历克斯对他的夏天有很大的计划。他希望找个女朋友,用新工作赚钱,和他的乐队玛丽·佩帕一起学习一首新歌,并赢得即将到来的乐队????演唱会之战。当他意识到生活中的一切都在变化时,他的夏季期望很快就变得不可能实现了。



Video

ID                                       : 1

Format                                   : AVC

Format/Info                              : Advanced Video Codec

Format profile                           : High@L4

Format settings                          : CABAC / 4 Ref Frames

Format settings, CABAC                   : Yes

Format settings, Reference frames        : 4 frames

Codec ID                                 : V_MPEG4/ISO/AVC

Duration                                 : 1 h 34 min

Bit rate mode                            : Constant

Bit rate                                 : 6 957 kb/s

Nominal bit rate                         : 10 000 kb/s

Width                                    : 1 920 pixels

Height                                   : 1 080 pixels

Display aspect ratio                     : 16:9

Frame rate mode                          : Constant

Frame rate                               : 24.000 FPS

Color space                              : YUV

Chroma subsampling                       : 4:2:0

Bit depth                                : 8 bits

Scan type                                : Progressive

Bits/(Pixel*Frame)                       : 0.140

Stream size                              : 4.61 GiB (97%)

Default                                  : Yes

Forced                                   : No

Color range                              : Limited

Color primaries                          : BT.709

Transfer characteristics                 : BT.709

Matrix coefficients                      : BT.709



Audio

ID                                       : 2

Format                                   : E-AC-3

Format/Info                              : Enhanced AC-3

Commercial name                          : Dolby Digital Plus

Codec ID                                 : A_EAC3

Duration                                 : 1 h 34 min

Bit rate mode                            : Constant

Bit rate                                 : 224 kb/s

Channel(s)                               : 2 channels

Channel layout                           : L R

Sampling rate                            : 48.0 kHz

Frame rate                               : 31.250 FPS (1536 SPF)

Compression mode                         : Lossy

Stream size                              : 152 MiB (3%)

Language                                 : Spanish

Service kind                             : Complete Main

Default                                  : Yes

Forced                                   : No



Text

ID                                       : 3

Format                                   : UTF-8

Codec ID                                 : S_TEXT/UTF8

Codec ID/Info                            : UTF-8 Plain Text

Duration                                 : 1 h 29 min

Bit rate                                 : 41 b/s

Count of elements                        : 745

Stream size                              : 27.3 KiB (0%)

Title                                    : English

Language                                 : English

Default                                  : Yes

Forced                                   : No


悠悠MP4_MP4电影下载_我们是玛丽·佩帕 We.Are.Mari.Pepa.2013.SPANISH.1080p.AMZN.WEBRip.DDP2.0.x264-TEPES 4.76GB悠悠MP4_MP4电影下载_我们是玛丽·佩帕 We.Are.Mari.Pepa.2013.SPANISH.1080p.AMZN.WEBRip.DDP2.0.x264-TEPES 4.76GB悠悠MP4_MP4电影下载_我们是玛丽·佩帕 We.Are.Mari.Pepa.2013.SPANISH.1080p.AMZN.WEBRip.DDP2.0.x264-TEPES 4.76GB

                                                                                           

提示:如迅雷下载提示"任务出错"、"因版权无法下载",请尝试【迅雷5】
上传的附件:
最新回复 (0)
返回
本站所有资源均收集自互联网,没有提供影片资源存储, 也未参与录制、上传,若本站收录的资源无意侵犯了您的权益, 请联系邮箱:gogoimgs#gmail.com(#=@)