[2019] [其他] [奇幻] [WEB-1080P] 僵尸儿童/巫毒少女 Zombi.Child.2019.FRENCH.1080p.AMZN.WEBRip.DDP2.0.x264-Cinefeel 5.44GB

uump4 14天前 242

悠悠MP4_MP4电影下载_僵尸儿童/巫毒少女 Zombi.Child.2019.FRENCH.1080p.AMZN.WEBRip.DDP2.0.x264-Cinefeel 5.44GB
悠悠MP4_MP4电影下载_僵尸儿童/巫毒少女 Zombi.Child.2019.FRENCH.1080p.AMZN.WEBRip.DDP2.0.x264-Cinefeel 5.44GB

◎译  名 僵尸儿童 / 巫毒少女(台)
◎片  名 Zombi Child
◎年  代 2019
◎产  地 法国
◎类  别 奇幻
◎语  言 法语 / 海地语
◎上映日期 2019-05-17(戛纳电影节) / 2019-06-12(法国)
◎IMDb评分  6.2/10 from 1294 users
◎IMDb链接  https://www.imdb.com/title/tt9056192
◎豆瓣评分 5.7/10 from 376 users
◎豆瓣链接 https://movie.douban.com/subject/30331787/
◎片  长 103分钟
◎导  演 贝特朗·波尼洛 Bertrand Bonello
◎编  剧 贝特朗·波尼洛 Bertrand Bonello
◎主  演 莎迪娅·本太耶布 Saadia Benta?eb
       本杰明·克洛提 Benjamin Crotty
       路易丝·拉贝克 Louise Labeque
       维斯兰达·路易马特 Wislanda Louimat
       赛义德·艾尔·阿拉米 Sayyid El Alami
       卡蒂安娜·米尔福特 Katiana Milfort


◎标  签 法国 | 2019 | 奇幻 | 戛纳电影节 | 剧情 | 法国电影 | BertrandBonello | 法國

◎简  介  

  影片将通过展现海地女孩Clairvius Narcisse的个人命运,来探讨民族与幻想的边界。Narcisse是伏都教法术的牺牲品,巫术将她变成了僵尸。时间线将在1962年的海地与现代法国巴黎之间跳跃,而故事则围绕着15岁的Narcisse,和她身为巫毒女祭司的姨母之间进行。

◎获奖情况  

  第72届戛纳电影节(2019)
  导演双周单元(提名) 贝特朗·波尼洛
  同志金棕榈奖(提名) 贝特朗·波尼洛


Video

ID                                       : 3

Format                                   : AVC

Format/Info                              : Advanced Video Codec

Format profile                           : High@L4

Format settings                          : CABAC / 4 Ref Frames

Format settings, CABAC                   : Yes

Format settings, Reference frames        : 4 frames

Codec ID                                 : V_MPEG4/ISO/AVC

Duration                                 : 1 h 42 min

Bit rate mode                            : Constant

Bit rate                                 : 7 343 kb/s

Nominal bit rate                         : 10 000 kb/s

Width                                    : 1 920 pixels

Height                                   : 1 040 pixels

Display aspect ratio                     : 1.85:1

Frame rate mode                          : Constant

Frame rate                               : 24.000 FPS

Color space                              : YUV

Chroma subsampling                       : 4:2:0

Bit depth                                : 8 bits

Scan type                                : Progressive

Bits/(Pixel*Frame)                       : 0.153

Stream size                              : 5.28 GiB (97%)

Default                                  : Yes

Forced                                   : No

Color range                              : Limited

Color primaries                          : BT.709

Transfer characteristics                 : BT.709

Matrix coefficients                      : BT.709



Audio

ID                                       : 1

Format                                   : E-AC-3

Format/Info                              : Enhanced AC-3

Commercial name                          : Dolby Digital Plus

Codec ID                                 : A_EAC3

Duration                                 : 1 h 42 min

Bit rate mode                            : Constant

Bit rate                                 : 224 kb/s

Channel(s)                               : 2 channels

Channel layout                           : L R

Sampling rate                            : 48.0 kHz

Frame rate                               : 31.250 FPS (1536 SPF)

Compression mode                         : Lossy

Stream size                              : 165 MiB (3%)

Language                                 : French

Service kind                             : Complete Main

Default                                  : Yes

Forced                                   : No



Text

ID                                       : 2

Format                                   : UTF-8

Codec ID                                 : S_TEXT/UTF8

Codec ID/Info                            : UTF-8 Plain Text

Duration                                 : 1 h 41 min

Bit rate                                 : 29 b/s

Count of elements                        : 838

Stream size                              : 21.8 KiB (0%)

Language                                 : English

Default                                  : No

Forced                                   : No


悠悠MP4_MP4电影下载_僵尸儿童/巫毒少女 Zombi.Child.2019.FRENCH.1080p.AMZN.WEBRip.DDP2.0.x264-Cinefeel 5.44GB悠悠MP4_MP4电影下载_僵尸儿童/巫毒少女 Zombi.Child.2019.FRENCH.1080p.AMZN.WEBRip.DDP2.0.x264-Cinefeel 5.44GB悠悠MP4_MP4电影下载_僵尸儿童/巫毒少女 Zombi.Child.2019.FRENCH.1080p.AMZN.WEBRip.DDP2.0.x264-Cinefeel 5.44GB

                                                                                           

提示:如迅雷下载提示"任务出错"、"因版权无法下载",请尝试【迅雷5】
上传的附件:
最新回复 (0)
返回
本站所有资源均收集自互联网,没有提供影片资源存储, 也未参与录制、上传,若本站收录的资源无意侵犯了您的权益, 请联系邮箱:gogoimgs#gmail.com(#=@)