[2020] [欧美] [喜剧] [WEB-1080P] 猫狗大战3:爪爪集结! Cats.and.Dogs.3.Paws.Unite.2020.1080p.WEBRip.DD5.1.x264-CM 3.88GB

uump4 13天前 170

悠悠MP4_MP4电影下载_猫狗大战3:爪爪集结! Cats.and.Dogs.3.Paws.Unite.2020.1080p.WEBRip.DD5.1.x264-CM 3.88GB
悠悠MP4_MP4电影下载_猫狗大战3:爪爪集结! Cats.and.Dogs.3.Paws.Unite.2020.1080p.WEBRip.DD5.1.x264-CM 3.88GB

◎译  名 猫狗大战3:爪爪集结!
◎片  名 Cats & Dogs 3: Paws Unite!
◎年  代 2020
◎产  地 美国
◎类  别 喜剧
◎语  言 英语
◎上映日期 2020-09-15(美国)
◎IMDb链接  https://www.imdb.com/title/tt12745164
◎豆瓣评分 0/10 from 0 users
◎豆瓣链接 https://movie.douban.com/subject/35141104/
◎导  演 肖恩·麦克纳马拉 Sean McNamara
◎编  剧 斯科特·宾德利 Scott Bindley / 约翰·里夸 John Requa / 格伦·费卡拉 Glenn Ficarra
◎主  演 梅丽莎·劳奇 Melissa Rauch
       莎拉·吉尔斯 Sarah Giles
       马克思·格林菲尔德 Max Greenfield
       乔治·洛佩兹 George Lopez


◎标  签 喜剧 | 动物 | 美国电影 | 猫狗 | 2020 | 美国 | 电影 | 马克思·格林菲尔德

◎简  介  

  距离第二部后猫狗休战已经过去10年了,猫狗两家共同发明了一种监控系统,维持和平化解冲突。然而当一只精通技术的鹦鹉出现,利用自己的“黑客”技术入侵,并使用猫和狗才能听到的频率来操控它们,世界各地再度爆发猫狗大战!于是,一群没有经验的新手猫狗特工要用最原始的方式来恢复和平。


Video

ID                                       : 1

Format                                   : AVC

Format/Info                              : Advanced Video Codec

Format profile                           : High@L4

Format settings                          : CABAC / 2 Ref Frames

Format settings, CABAC                   : Yes

Format settings, Reference frames        : 2 frames

Codec ID                                 : V_MPEG4/ISO/AVC

Duration                                 : 1 h 24 min

Bit rate                                 : 6 224 kb/s

Width                                    : 1 920 pixels

Height                                   : 1 080 pixels

Display aspect ratio                     : 16:9

Frame rate mode                          : Constant

Frame rate                               : 23.976 (24000/1001/34539) FPS

Color space                              : YUV

Chroma subsampling                       : 4:2:0

Bit depth                                : 8 bits

Scan type                                : Progressive

Bits/(Pixel*Frame)                       : 0.125

Stream size                              : 3.66 GiB (94%)

Writing library                          : x264 core 155 r2901 7d0ff22

Default                                  : Yes

Forced                                   : No

Color range                              : Limited

Color primaries                          : BT.709

Transfer characteristics                 : BT.709

Matrix coefficients                      : BT.709



Audio

ID                                       : 2

Format                                   : AC-3

Format/Info                              : Audio Coding 3

Commercial name                          : Dolby Digital

Codec ID                                 : A_AC3

Duration                                 : 1 h 24 min

Bit rate mode                            : Constant

Bit rate                                 : 384 kb/s

Channel(s)                               : 6 channels

Channel layout                           : L R C LFE Ls Rs

Sampling rate                            : 48.0 kHz

Frame rate                               : 31.250 FPS (1536 SPF)

Compression mode                         : Lossy

Stream size                              : 231 MiB (6%)

Language                                 : English

Service kind                             : Complete Main

Default                                  : Yes

Forced                                   : No


悠悠MP4_MP4电影下载_猫狗大战3:爪爪集结! Cats.and.Dogs.3.Paws.Unite.2020.1080p.WEBRip.DD5.1.x264-CM 3.88GB悠悠MP4_MP4电影下载_猫狗大战3:爪爪集结! Cats.and.Dogs.3.Paws.Unite.2020.1080p.WEBRip.DD5.1.x264-CM 3.88GB悠悠MP4_MP4电影下载_猫狗大战3:爪爪集结! Cats.and.Dogs.3.Paws.Unite.2020.1080p.WEBRip.DD5.1.x264-CM 3.88GB

                                                                                           

提示:如迅雷下载提示"任务出错"、"因版权无法下载",请尝试【迅雷5】
上传的附件:
最新回复 (0)
返回
本站所有资源均收集自互联网,没有提供影片资源存储, 也未参与录制、上传,若本站收录的资源无意侵犯了您的权益, 请联系邮箱:gogoimgs#gmail.com(#=@)