[2020] [欧美] [科幻] [WEB-1080P] 平行相交 Intersect.2020.1080p.WEB-DL.DD5.1.H264-FGT 4.22GB

uump4 13天前 268

悠悠MP4_MP4电影下载_平行相交 Intersect.2020.1080p.WEB-DL.DD5.1.H264-FGT 4.22GB
悠悠MP4_MP4电影下载_平行相交 Intersect.2020.1080p.WEB-DL.DD5.1.H264-FGT 4.22GB

◎译  名 平行相交
◎片  名 Intersect
◎年  代 2020
◎产  地 美国
◎类  别 科幻 / 惊悚 / 恐怖
◎语  言 英语
◎上映日期 2020-02-12(波士顿科幻电影节) / 2020-09-15(美国)
◎IMDb评分  8.1/10 from 16 users
◎IMDb链接  https://www.imdb.com/title/tt4205718
◎豆瓣评分 0/10 from 0 users
◎豆瓣链接 https://movie.douban.com/subject/35183450/
◎导  演 Gus Holwerda
◎编  剧 Gus Holwerda
◎主  演 理查德·道金斯 Richard Dawkins
       杰森·斯皮萨克 Jason Spisak


◎标  签 科幻 | 惊悚 | 恐怖 | 美国电影 | CoC | 2020 | 美国

◎简  介  

  一群米斯卡顿大学的年轻科学家发明了一个时间机器,最终发现他们被来自另一个维度的神秘的、看不见的力量操纵着。


Video

ID                                       : 1

Format                                   : AVC

Format/Info                              : Advanced Video Codec

Format profile                           : High@L4

Format settings                          : CABAC / 4 Ref Frames

Format settings, CABAC                   : Yes

Format settings, Reference frames        : 4 frames

Codec ID                                 : V_MPEG4/ISO/AVC

Duration                                 : 1 h 58 min

Bit rate                                 : 4 700 kb/s

Width                                    : 1 920 pixels

Height                                   : 960 pixels

Display aspect ratio                     : 2.000

Frame rate mode                          : Constant

Frame rate                               : 23.976 (24000/1001/34539) FPS

Color space                              : YUV

Chroma subsampling                       : 4:2:0

Bit depth                                : 8 bits

Scan type                                : Progressive

Bits/(Pixel*Frame)                       : 0.106

Stream size                              : 3.90 GiB (92%)

Title                                    : Intersect.2020.1080p.WEB-DL.DD5.1.H264-FGT

Language                                 : English

Default                                  : Yes

Forced                                   : No

Color range                              : Limited

Color primaries                          : BT.709

Transfer characteristics                 : BT.709

Matrix coefficients                      : BT.709



Audio

ID                                       : 2

Format                                   : AC-3

Format/Info                              : Audio Coding 3

Commercial name                          : Dolby Digital

Codec ID                                 : A_AC3

Duration                                 : 1 h 58 min

Bit rate mode                            : Constant

Bit rate                                 : 384 kb/s

Channel(s)                               : 6 channels

Channel layout                           : L R C LFE Ls Rs

Sampling rate                            : 48.0 kHz

Frame rate                               : 31.250 FPS (1536 SPF)

Compression mode                         : Lossy

Stream size                              : 326 MiB (8%)

Title                                    : Intersect.2020.1080p.WEB-DL.DD5.1.H264-FGT

Language                                 : English

Service kind                             : Complete Main

Default                                  : Yes

Forced                                   : No



Text

ID                                       : 3

Format                                   : UTF-8

Codec ID                                 : S_TEXT/UTF8

Codec ID/Info                            : UTF-8 Plain Text

Duration                                 : 1 h 51 min

Bit rate                                 : 47 b/s

Count of elements                        : 1435

Stream size                              : 38.4 KiB (0%)

Language                                 : English

Default                                  : Yes

Forced                                   : No


悠悠MP4_MP4电影下载_平行相交 Intersect.2020.1080p.WEB-DL.DD5.1.H264-FGT 4.22GB悠悠MP4_MP4电影下载_平行相交 Intersect.2020.1080p.WEB-DL.DD5.1.H264-FGT 4.22GB悠悠MP4_MP4电影下载_平行相交 Intersect.2020.1080p.WEB-DL.DD5.1.H264-FGT 4.22GB

                                                                                           

提示:如迅雷下载提示"任务出错"、"因版权无法下载",请尝试【迅雷5】
上传的附件:
最新回复 (0)
返回
本站所有资源均收集自互联网,没有提供影片资源存储, 也未参与录制、上传,若本站收录的资源无意侵犯了您的权益, 请联系邮箱:gogoimgs#gmail.com(#=@)