[2020] [欧美] [恐怖] [WEB-1080P] 最后的笑声 The.Last.Laugh.2020.1080p.WEB-DL.DD5.1.H264-FGT 2.85GB

uump4 13天前 103

悠悠MP4_MP4电影下载_最后的笑声 The.Last.Laugh.2020.1080p.WEB-DL.DD5.1.H264-FGT 2.85GB
悠悠MP4_MP4电影下载_最后的笑声 The.Last.Laugh.2020.1080p.WEB-DL.DD5.1.H264-FGT 2.85GB

◎译  名 最后的笑声 / Killing Joke
◎片  名 The Last Laugh
◎年  代 2020
◎产  地 美国
◎类  别 恐怖
◎语  言 英语
◎上映日期 2020-09-15(美国)
◎IMDb链接  https://www.imdb.com/title/tt8333418
◎豆瓣评分 0/10 from 0 users
◎豆瓣链接 https://movie.douban.com/subject/30384512/
◎主  演 米兰达·朗 Meranda Long
       Eric Stone


◎简  介  

  一位单人脱口秀谐星,即将站上他人生最大的表演舞台表演,他的前景看好。不料,他却在开演前发现了一位在逃的杀人凶手,他会做出什么糟糕的决定?


Video

ID                                       : 1

Format                                   : AVC

Format/Info                              : Advanced Video Codec

Format profile                           : High@L4

Format settings                          : CABAC / 4 Ref Frames

Format settings, CABAC                   : Yes

Format settings, Reference frames        : 4 frames

Codec ID                                 : V_MPEG4/ISO/AVC

Duration                                 : 1 h 21 min

Bit rate                                 : 4 608 kb/s

Width                                    : 1 920 pixels

Height                                   : 950 pixels

Display aspect ratio                     : 2.021

Frame rate mode                          : Constant

Frame rate                               : 23.976 (24000/1001/34539) FPS

Color space                              : YUV

Chroma subsampling                       : 4:2:0

Bit depth                                : 8 bits

Scan type                                : Progressive

Bits/(Pixel*Frame)                       : 0.105

Stream size                              : 2.63 GiB (92%)

Title                                    : The.Last.Laugh.2020.1080p.WEB-DL.DD5.1.H264-FGT

Language                                 : English

Default                                  : Yes

Forced                                   : No

Color range                              : Limited

Color primaries                          : BT.709

Transfer characteristics                 : BT.709

Matrix coefficients                      : BT.709



Audio

ID                                       : 2

Format                                   : AC-3

Format/Info                              : Audio Coding 3

Commercial name                          : Dolby Digital

Codec ID                                 : A_AC3

Duration                                 : 1 h 21 min

Bit rate mode                            : Constant

Bit rate                                 : 384 kb/s

Channel(s)                               : 6 channels

Channel layout                           : L R C LFE Ls Rs

Sampling rate                            : 48.0 kHz

Frame rate                               : 31.250 FPS (1536 SPF)

Compression mode                         : Lossy

Stream size                              : 224 MiB (8%)

Title                                    : The.Last.Laugh.2020.1080p.WEB-DL.DD5.1.H264-FGT

Language                                 : English

Service kind                             : Complete Main

Default                                  : Yes

Forced                                   : No



Text

ID                                       : 3

Format                                   : UTF-8

Codec ID                                 : S_TEXT/UTF8

Codec ID/Info                            : UTF-8 Plain Text

Duration                                 : 1 h 16 min

Bit rate                                 : 47 b/s

Count of elements                        : 953

Stream size                              : 26.8 KiB (0%)

Language                                 : English

Default                                  : Yes

Forced                                   : No


悠悠MP4_MP4电影下载_最后的笑声 The.Last.Laugh.2020.1080p.WEB-DL.DD5.1.H264-FGT 2.85GB悠悠MP4_MP4电影下载_最后的笑声 The.Last.Laugh.2020.1080p.WEB-DL.DD5.1.H264-FGT 2.85GB悠悠MP4_MP4电影下载_最后的笑声 The.Last.Laugh.2020.1080p.WEB-DL.DD5.1.H264-FGT 2.85GB

                                                                                           

提示:如迅雷下载提示"任务出错"、"因版权无法下载",请尝试【迅雷5】
上传的附件:
最新回复 (0)
返回
本站所有资源均收集自互联网,没有提供影片资源存储, 也未参与录制、上传,若本站收录的资源无意侵犯了您的权益, 请联系邮箱:gogoimgs#gmail.com(#=@)