[2019] [欧美] [恐怖] [WEB-1080P] 杀手疗法 Killer.Therapy.2019.1080p.WEB-DL.DD5.1.H264-FGT 3.26GB

uump4 14天前 164

悠悠MP4_MP4电影下载_杀手疗法 Killer.Therapy.2019.1080p.WEB-DL.DD5.1.H264-FGT 3.26GB
悠悠MP4_MP4电影下载_杀手疗法 Killer.Therapy.2019.1080p.WEB-DL.DD5.1.H264-FGT 3.26GB

◎译  名 杀手疗法
◎片  名 Killer Therapy
◎年  代 2019
◎产  地 美国
◎类  别 恐怖
◎语  言 英语
◎上映日期 2019-03-30(limited)
◎IMDb评分  8.9/10 from 19 users
◎IMDb链接  https://www.imdb.com/title/tt9029572
◎豆瓣评分 0/10 from 0 users
◎豆瓣链接 https://movie.douban.com/subject/34810952/
◎主  演 斯凯尔·卡莱布 Skyler Caleb
       Lola Davidson


◎简  介  

  A mentally unstable young man goes on a mission to hunt down and murder all the therapists he blames for messing up his mind and his life.

  谷歌为您翻译:
  一名精神上不稳定的年轻人执行任务,追捕并谋杀他指责他破坏了自己的思想和生活的所有治疗师。

  腾讯为您翻译:
  一个精神不稳定的年轻人执行一项任务,追捕并谋杀所有他指责的扰乱了他的头脑和生活的治疗师。

  本站为您翻译:
  一个精神不稳定的年轻人执行任务,追捕并谋杀所有他认为搞乱了他的思想和生活的治疗师。



Video

ID                                       : 1

Format                                   : AVC

Format/Info                              : Advanced Video Codec

Format profile                           : High@L4

Format settings                          : CABAC / 5 Ref Frames

Format settings, CABAC                   : Yes

Format settings, Reference frames        : 5 frames

Codec ID                                 : V_MPEG4/ISO/AVC

Duration                                 : 1 h 34 min

Bit rate                                 : 4 558 kb/s

Width                                    : 1 908 pixels

Height                                   : 804 pixels

Display aspect ratio                     : 2.40:1

Frame rate mode                          : Constant

Frame rate                               : 23.976 (24000/1001/34539) FPS

Color space                              : YUV

Chroma subsampling                       : 4:2:0

Bit depth                                : 8 bits

Scan type                                : Progressive

Bits/(Pixel*Frame)                       : 0.124

Stream size                              : 3.00 GiB (92%)

Language                                 : English

Default                                  : Yes

Forced                                   : No

Color range                              : Limited

Color primaries                          : BT.709

Transfer characteristics                 : BT.709

Matrix coefficients                      : BT.709



Audio

ID                                       : 2

Format                                   : AC-3

Format/Info                              : Audio Coding 3

Commercial name                          : Dolby Digital

Codec ID                                 : A_AC3

Duration                                 : 1 h 34 min

Bit rate mode                            : Constant

Bit rate                                 : 384 kb/s

Channel(s)                               : 6 channels

Channel layout                           : L R C LFE Ls Rs

Sampling rate                            : 48.0 kHz

Frame rate                               : 31.250 FPS (1536 SPF)

Compression mode                         : Lossy

Stream size                              : 259 MiB (8%)

Language                                 : English

Service kind                             : Complete Main

Default                                  : Yes

Forced                                   : No



Text

ID                                       : 3

Format                                   : UTF-8

Codec ID                                 : S_TEXT/UTF8

Codec ID/Info                            : UTF-8 Plain Text

Duration                                 : 1 h 30 min

Bit rate                                 : 42 b/s

Count of elements                        : 1122

Stream size                              : 27.9 KiB (0%)

Language                                 : English

Default                                  : Yes

Forced                                   : No


悠悠MP4_MP4电影下载_杀手疗法 Killer.Therapy.2019.1080p.WEB-DL.DD5.1.H264-FGT 3.26GB悠悠MP4_MP4电影下载_杀手疗法 Killer.Therapy.2019.1080p.WEB-DL.DD5.1.H264-FGT 3.26GB悠悠MP4_MP4电影下载_杀手疗法 Killer.Therapy.2019.1080p.WEB-DL.DD5.1.H264-FGT 3.26GB

                                                                                           

提示:如迅雷下载提示"任务出错"、"因版权无法下载",请尝试【迅雷5】
上传的附件:
最新回复 (0)
返回
本站所有资源均收集自互联网,没有提供影片资源存储, 也未参与录制、上传,若本站收录的资源无意侵犯了您的权益, 请联系邮箱:gogoimgs#gmail.com(#=@)