[更早] [欧美] [悬疑] [BD-4K] 群鸟/鸟 The.Birds.1963.2160p.BluRay.x265.10bit.SDR.DTS-HD.MA.2.0-SWTYBLZ 48.60GB

uump4 13天前 35

悠悠MP4_MP4电影下载_群鸟/鸟 The.Birds.1963.2160p.BluRay.x265.10bit.SDR.DTS-HD.MA.2.0-SWTYBLZ 48.60GB
悠悠MP4_MP4电影下载_群鸟/鸟 The.Birds.1963.2160p.BluRay.x265.10bit.SDR.DTS-HD.MA.2.0-SWTYBLZ 48.60GB

◎译  名 群鸟 / Alfred Hitchcock's The Birds / 鸟
◎片  名 The Birds
◎年  代 1963
◎产  地 美国
◎类  别 悬疑 / 惊悚 / 灾难
◎语  言 英语
◎上映日期 1963-03-28(美国)
◎IMDb评分  7.7/10 from 165484 users
◎IMDb链接  https://www.imdb.com/title/tt0056869
◎豆瓣评分 8.1/10 from 43102 users
◎豆瓣链接 https://movie.douban.com/subject/1310175/
◎片  长 119 分钟
◎导  演 阿尔弗雷德·希区柯克 Alfred Hitchcock
◎编  剧 达芙妮·杜穆里埃 Daphne Du Maurier / 伊万·亨特 Evan Hunter
◎主  演 罗德·泰勒 Rod Taylor
       杰西卡·坦迪 Jessica Tandy
       苏珊娜·普莱舍特 Suzanne Pleshette
       蒂比·海德莉 Tippi Hedren
       维罗尼卡·卡维特 Veronica Cartwright
       艾塞尔·格里菲斯 Ethel Griffies
       查尔斯·麦格劳 Charles McGraw
       鲁斯·麦克德维特 Ruth McDevitt
       朗尼·查普曼 Lonny Chapman
       乔·马特尔 Joe Mantell
       马尔科姆·阿特伯里 Malcolm Atterbury
       约翰·麦戈文 John McGovern
       卡尔·斯温森 Karl Swenson
       理查德·迪肯 Richard Deacon
       伊莉莎白·威尔森 Elizabeth Wilson
       比尔·奎因 Bill Quinn
       多琳郎 Doreen Lang
       摩根·布尼塔尼 Morgan Brittany
       阿尔弗雷德·希区柯克 Alfred Hitchcock
       戴尔·麦肯南 Dal McKennon
       罗珊妮·图尼斯 Roxanne Tunis
       Doodles Weaver
       Darlene Conley
       Renn Reed
       Jeannie Russell


◎标  签 希区柯克 | 惊悚 | 美国 | 悬疑 | AlfredHitchcock | 经典 | 美国电影 | 1963

◎简  介  

  米兰妮(蒂比·海德莉 Tippi Hedren 饰)是一个富家女,偶然在宠物店里遇见律师米契(罗德泰勒Rod Taylor 饰),二人萌生爱意。第二天米兰妮带着她的一对宠物鹦鹉到访米契居住的波德加湾小镇,却被一只海鸥袭击,当场受伤。然而谁也没料到,这次鸟袭击人的事件,只是鸟类大规模攻击人类的小序幕。
  米兰妮留在镇上疗伤,这里鸟语花香,生活本来平静,她还认识了米契的家人和前女友,于米契的感情也渐渐升温,但是鸟类的出没对他们生活的骚扰程度也渐渐升级。这些鸟聚集的越来越多,黑压压的一大片,被它们攻击至伤甚至至死的居民日渐增多,这个小镇陷入一片疯狂的鸟灾当中。人们恐惧接近崩溃,如何赶快逃脱这个恐怖的地方,成了他们迫在眉梢的问题。

◎获奖情况  

  第36届奥斯卡金像奖(1964)
  最佳视觉效果(提名) 乌布·伊沃克斯

  第21届金球奖(1964)
  电影类 年度女新星 蒂比·海德莉


Video
ID                                       : 1
Format                                   : HEVC
Format/Info                              : High Efficiency Video Coding
Format profile                           : Main 10@L5.1@High
Codec ID                                 : V_MPEGH/ISO/HEVC
Duration                                 : 1 h 59 min
Bit rate                                 : 55.4 Mb/s
Width                                    : 3 840 pixels
Height                                   : 2 076 pixels
Display aspect ratio                     : 1.85:1
Frame rate mode                          : Constant
Frame rate                               : 23.976 (24000/1001/34539) FPS
Color space                              : YUV
Chroma subsampling                       : 4:2:0
Bit depth                                : 10 bits
Bits/(Pixel*Frame)                       : 0.290
Stream size                              : 46.3 GiB (96%)
Title                                    : The.Birds.1963.2160p.BluRay.x265.10bit.SDR.DTS-HD.MA.2.0-SWTYBLZ
Writing library                          : x265 3.0+1-ed72af837053:[Windows][GCC 8.2.0][64 bit] 10bit
Encoding settings                        : cpuid=1111039 / frame-threads=6 / numa-pools=40 / wpp / no-pmode / no-pme / no-psnr / no-ssim / log-level=2 / input-csp=1 / input-res=3840x2076 / interlace=0 / total-frames=171944 / level-idc=51 / high-tier=1 / uhd-bd=0 / ref=3 / no-allow-non-conformance / repeat-headers / annexb / aud / hrd / info / hash=0 / no-temporal-layers / no-open-gop / min-keyint=1 / keyint=24 / gop-lookahead=0 / bframes=4 / b-adapt=2 / b-pyramid / bframe-bias=0 / rc-lookahead=25 / lookahead-slices=4 / scenecut=40 / radl=0 / no-splice / no-intra-refresh / ctu=64 / min-cu-size=8 / no-rect / no-amp / max-tu-size=32 / tu-inter-depth=1 / tu-intra-depth=1 / limit-tu=0 / rdoq-level=0 / dynamic-rd=0.00 / no-ssim-rd / signhide / no-tskip / nr-intra=0 / nr-inter=0 / no-constrained-intra / strong-intra-smoothing / max-merge=2 / limit-refs=3 / no-limit-modes / me=1 / subme=2 / merange=57 / temporal-mvp / weightp / no-weightb / no-analyze-src-pics / deblock=0:0 / no-sao / no-sao-non-deblock / rd=3 / no-early-skip / rskip / no-fast-intra / no-tskip-fast / no-cu-lossless / no-b-intra / no-splitrd-skip / rdpenalty=0 / psy-rd=2.00 / psy-rdoq=0.00 / no-rd-refine / no-lossless / cbqpoffs=0 / crqpoffs=0 / rc=crf / crf=20.0 / qcomp=0.60 / qpstep=4 / stats-write=0 / stats-read=0 / vbv-maxrate=160000 / vbv-bufsize=160000 / vbv-init=0.9 / crf-max=0.0 / crf-min=0.0 / ipratio=1.40 / pbratio=1.30 / aq-mode=1 / aq-strength=1.00 / cutree / zone-count=0 / no-strict-cbr / qg-size=32 / no-rc-grain / qpmax=69 / qpmin=0 / no-const-vbv / sar=1 / overscan=0 / videoformat=5 / range=0 / colorprim=2 / transfer=2 / colormatrix=2 / chromaloc=0 / display-window=0 / max-cll=0,0 / min-luma=0 / max-luma=1023 / log2-max-poc-lsb=8 / vui-timing-info / vui-hrd-info / slices=1 / opt-qp-pps / opt-ref-list-length-pps / no-multi-pass-opt-rps / scenecut-bias=0.05 / no-opt-cu-delta-qp / no-aq-motion / no-hdr / no-hdr-opt / no-dhdr10-opt / no-idr-recovery-sei / analysis-reuse-level=5 / scale-factor=0 / refine-intra=0 / refine-inter=0 / refine-mv=0 / refine-ctu-distortion=0 / no-limit-sao / ctu-info=0 / no-lowpass-dct / refine-analysis-type=0 / copy-pic=1 / max-ausize-factor=1.0 / no-dynamic-refine / no-single-sei / no-hevc-aq / qp-adaptation-range=1.00
Language                                 : English
Default                                  : Yes
Forced                                   : No

Audio #1
ID                                       : 2
ID in the original source medium         : 4352 (0x1100)
Format                                   : DTS XLL
Format/Info                              : Digital Theater Systems
Commercial name                          : DTS-HD Master Audio
Codec ID                                 : A_DTS
Duration                                 : 1 h 59 min
Bit rate mode                            : Variable
Bit rate                                 : 1 785 kb/s
Channel(s)                               : 2 channels
Channel layout                           : L R
Sampling rate                            : 48.0 kHz
Frame rate                               : 93.750 FPS (512 SPF)
Bit depth                                : 24 bits
Compression mode                         : Lossless
Stream size                              : 1.49 GiB (3%)
Title                                    : The.Birds.1963.2160p.BluRay.x265.10bit.SDR.DTS-HD.MA.2.0-SWTYBLZ
Language                                 : English
Default                                  : Yes
Forced                                   : No
Original source medium                   : Blu-ray

Audio #2
ID                                       : 3
Format                                   : AC-3
Format/Info                              : Audio Coding 3
Commercial name                          : Dolby Digital
Codec ID                                 : A_AC3
Duration                                 : 1 h 59 min
Bit rate mode                            : Constant
Bit rate                                 : 640 kb/s
Channel(s)                               : 2 channels
Channel layout                           : L R
Sampling rate                            : 48.0 kHz
Frame rate                               : 31.250 FPS (1536 SPF)
Compression mode                         : Lossy
Stream size                              : 547 MiB (1%)
Title                                    : The.Birds.1963.2160p.BluRay.x265.10bit.SDR.DTS-HD.MA.2.0-SWTYBLZ
Language                                 : English
Service kind                             : Complete Main
Default                                  : No
Forced                                   : No

Text #1
ID                                       : 4
Format                                   : UTF-8
Codec ID                                 : S_TEXT/UTF8
Codec ID/Info                            : UTF-8 Plain Text
Duration                                 : 1 h 56 min
Bit rate                                 : 56 b/s
Count of elements                        : 1428
Stream size                              : 47.8 KiB (0%)
Title                                    : English-SRT
Language                                 : English
Default                                  : Yes
Forced                                   : No

Text #2
ID                                       : 5
ID in the original source medium         : 4768 (0x12A0)
Format                                   : PGS
Muxing mode                              : zlib
Codec ID                                 : S_HDMV/PGS
Codec ID/Info                            : Picture based subtitle format used on BDs/HD-DVDs
Duration                                 : 1 h 58 min
Bit rate                                 : 38.5 kb/s
Count of elements                        : 3156
Stream size                              : 32.7 MiB (0%)
Title                                    : English-PGS
Language                                 : English
Default                                  : No
Forced                                   : No
Original source medium                   : Blu-ray

Text #3
ID                                       : 6
ID in the original source medium         : 4769 (0x12A1)
Format                                   : PGS
Muxing mode                              : zlib
Codec ID                                 : S_HDMV/PGS
Codec ID/Info                            : Picture based subtitle format used on BDs/HD-DVDs
Duration                                 : 1 h 57 min
Bit rate                                 : 33.4 kb/s
Count of elements                        : 2304
Stream size                              : 28.0 MiB (0%)
Title                                    : German-PGS
Language                                 : German
Default                                  : No
Forced                                   : No
Original source medium                   : Blu-ray

Text #4
ID                                       : 7
ID in the original source medium         : 4770 (0x12A2)
Format                                   : PGS
Muxing mode                              : zlib
Codec ID                                 : S_HDMV/PGS
Codec ID/Info                            : Picture based subtitle format used on BDs/HD-DVDs
Duration                                 : 1 h 57 min
Bit rate                                 : 29.5 kb/s
Count of elements                        : 2308
Stream size                              : 24.7 MiB (0%)
Title                                    : Italian-PGS
Language                                 : Italian
Default                                  : No
Forced                                   : No
Original source medium                   : Blu-ray

Text #5
ID                                       : 8
ID in the original source medium         : 4771 (0x12A3)
Format                                   : PGS
Muxing mode                              : zlib
Codec ID                                 : S_HDMV/PGS
Codec ID/Info                            : Picture based subtitle format used on BDs/HD-DVDs
Duration                                 : 1 h 57 min
Bit rate                                 : 30.0 kb/s
Count of elements                        : 2306
Stream size                              : 25.2 MiB (0%)
Title                                    : Spanish-PGS
Language                                 : Spanish
Default                                  : No
Forced                                   : No
Original source medium                   : Blu-ray

Menu
00:00:00.000                             : en:Chapter 01
00:01:46.564                             : en:Chapter 02
00:09:37.410                             : en:Chapter 03
00:20:07.164                             : en:Chapter 04
00:29:36.733                             : en:Chapter 05
00:32:17.810                             : en:Chapter 06
00:41:01.000                             : en:Chapter 07
00:47:50.826                             : en:Chapter 08
00:54:03.198                             : en:Chapter 09
00:58:54.405                             : en:Chapter 10
01:08:17.718                             : en:Chapter 11
01:15:50.003                             : en:Chapter 12
01:24:27.896                             : en:Chapter 13
01:26:20.967                             : en:Chapter 14
01:28:03.861                             : en:Chapter 15
01:29:44.837                             : en:Chapter 16
01:33:57.256                             : en:Chapter 17
01:45:16.435                             : en:Chapter 18
01:51:18.171                             : en:Chapter 19
01:56:21.140                             : en:Chapter 20


悠悠MP4_MP4电影下载_群鸟/鸟 The.Birds.1963.2160p.BluRay.x265.10bit.SDR.DTS-HD.MA.2.0-SWTYBLZ 48.60GB悠悠MP4_MP4电影下载_群鸟/鸟 The.Birds.1963.2160p.BluRay.x265.10bit.SDR.DTS-HD.MA.2.0-SWTYBLZ 48.60GB悠悠MP4_MP4电影下载_群鸟/鸟 The.Birds.1963.2160p.BluRay.x265.10bit.SDR.DTS-HD.MA.2.0-SWTYBLZ 48.60GB悠悠MP4_MP4电影下载_群鸟/鸟 The.Birds.1963.2160p.BluRay.x265.10bit.SDR.DTS-HD.MA.2.0-SWTYBLZ 48.60GB悠悠MP4_MP4电影下载_群鸟/鸟 The.Birds.1963.2160p.BluRay.x265.10bit.SDR.DTS-HD.MA.2.0-SWTYBLZ 48.60GB悠悠MP4_MP4电影下载_群鸟/鸟 The.Birds.1963.2160p.BluRay.x265.10bit.SDR.DTS-HD.MA.2.0-SWTYBLZ 48.60GB悠悠MP4_MP4电影下载_群鸟/鸟 The.Birds.1963.2160p.BluRay.x265.10bit.SDR.DTS-HD.MA.2.0-SWTYBLZ 48.60GB悠悠MP4_MP4电影下载_群鸟/鸟 The.Birds.1963.2160p.BluRay.x265.10bit.SDR.DTS-HD.MA.2.0-SWTYBLZ 48.60GB

                                                                                           

提示:如迅雷下载提示"任务出错"、"因版权无法下载",请尝试【迅雷5】
上传的附件:
最新回复 (0)
返回
本站所有资源均收集自互联网,没有提供影片资源存储, 也未参与录制、上传,若本站收录的资源无意侵犯了您的权益, 请联系邮箱:gogoimgs#gmail.com(#=@)