[更早] [欧美] [悬疑] [BD-4K] 惊魂记/精神病人 Psycho.1960.THEATRiCAL.2160p.UHD.BluRay.X265.10bit.HDR.DTS-X.7.1-GETiT 36.58GB

uump4 14天前 41

悠悠MP4_MP4电影下载_惊魂记/精神病人 Psycho.1960.THEATRiCAL.2160p.UHD.BluRay.X265.10bit.HDR.DTS-X.7.1-GETiT 36.58GB
悠悠MP4_MP4电影下载_惊魂记/精神病人 Psycho.1960.THEATRiCAL.2160p.UHD.BluRay.X265.10bit.HDR.DTS-X.7.1-GETiT 36.58GB

◎译  名 惊魂记 / 精神病人 / 精神病患者 / 触目惊心(港)
◎片  名 Psycho
◎年  代 1960
◎产  地 美国
◎类  别 悬疑 / 惊悚 / 恐怖
◎语  言 英语
◎上映日期 1960-06-16(纽约首映) / 1960-09-08(美国)
◎IMDb评分  8.5/10 from 579079 users
◎IMDb链接  https://www.imdb.com/title/tt0054215
◎豆瓣评分 9.0/10 from 166392 users
◎豆瓣链接 https://movie.douban.com/subject/1293181/
◎片  长 109分钟
◎导  演 阿尔弗雷德·希区柯克 Alfred Hitchcock
◎编  剧 约瑟夫·斯蒂凡诺 Joseph Stefano / 罗伯特·布洛克 Robert Bloch
◎主  演 安东尼·博金斯 Anthony Perkins
       维拉·迈尔斯 Vera Miles
       约翰·加文 John Gavin
       珍妮特·利 Janet Leigh
       马丁·鲍尔萨姆 Martin Balsam
       约翰·麦克因泰 John McIntire
       西蒙·奥克兰 Simon Oakland
       弗兰克·艾伯森 Frank Albertson
       帕特里夏·希区柯克 Patricia Hitchcock
       沃恩·泰勒 Vaughn Taylor
       卢伦·塔特尔 Lurene Tuttle
       约翰·安德森 John Anderson
       莫特·米尔斯 Mort Mills
       吉特卡森 Kit Carson
       维吉尼亚·格雷格 Virginia Gregg
       阿尔弗雷德·希区柯克 Alfred Hitchcock
       珍妮特·诺兰 Jeanette Nolan
       罗伯特奥斯本 Robert Osborne
       海伦·华莱士 Helen Wallace
       Fletcher Allen
       Walter Bacon
       Francis De Sales
       George Dockstader
       George Eldredge
       Harper Flaherty
       Sam Flint
       Frank Killmond
       Ted Knight
       Pat McCaffrie
       Hans-Joachim Moebis
       Fred Scheiwiller


◎标  签 希区柯克 | 悬疑 | 惊悚 | 美国 | 经典 | 心理 | 1960 | AlfredHitchcock

◎简  介  

  年轻的马里恩·克兰(珍妮特·利 饰)在Phoenix工作,深受老板洛厄里(沃恩·泰勒 饰)信任。男友萨姆·卢米斯(约翰·加文 饰)在Fairvale经营一家五金店,因要替亡父还债又要支付前妻赡养费而无力再婚,只能借出差的机会偶尔来与马里恩幽会。马里恩对此感到不满,于是在周五下午趁机携四万美元公款驾车潜逃。可是马里恩的潜逃之路并不顺利:先是在出城的时候被洛厄里目击,周六一大早又被警察怀疑。花了七百美元以旧车换新车之后,马里恩继续忐忑地行驶。入夜后,天降大雨,视线模糊,无法行驶,马里恩只得将车泊入路边的贝茨汽车旅馆投宿。老板诺尔曼(安东尼·珀金斯 饰)十分友善,试图邀请马里恩到家里共进晚餐,可惜被凶恶的母亲粗暴阻止,只得将晚餐端至旅馆客厅。马里恩在客厅一边进餐一边与诺尔曼交谈,终于决定周日返回Phoenix。用餐完毕,马里恩回房沐浴。这时,一个老妇的身影突然出现在卫生间……

◎获奖情况  

  第33届奥斯卡金像奖(1961)
  最佳导演(提名) 阿尔弗雷德·希区柯克
  最佳女配角(提名) 珍妮特·利
  黑白片最佳摄影(提名) 约翰·L·拉塞尔
  黑白片最佳艺术指导和布景(提名) Joseph Hurley / 乔治·米洛 / Robert Clatworthy

  第18届金球奖(1961)
  电影类 最佳女配角 珍妮特·利


Video
ID                                       : 1
Format                                   : HEVC
Format/Info                              : High Efficiency Video Coding
Format profile                           : Main 10@L5.1@High
HDR format                               : SMPTE ST 2086, HDR10 compatible
Codec ID                                 : V_MPEGH/ISO/HEVC
Duration                                 : 1 h 48 min
Bit rate                                 : 43.2 Mb/s
Width                                    : 3 840 pixels
Height                                   : 2 076 pixels
Display aspect ratio                     : 1.85:1
Frame rate mode                          : Constant
Frame rate                               : 23.976 (24000/1001/34539) FPS
Color space                              : YUV
Chroma subsampling                       : 4:2:0 (Type 2)
Bit depth                                : 10 bits
Bits/(Pixel*Frame)                       : 0.226
Stream size                              : 32.8 GiB (91%)
Writing library                          : x265 3.4+20-g06c52b0fd:[Windows][MSVC 1900][64 bit] 10bit
Encoding settings                        : cpuid=1111039 / frame-threads=6 / numa-pools=16,16 / wpp / no-pmode / no-pme / no-psnr / no-ssim / log-level=2 / input-csp=1 / input-res=3840x2076 / interlace=0 / total-frames=156592 / level-idc=51 / high-tier=1 / uhd-bd=0 / ref=4 / no-allow-non-conformance / repeat-headers / annexb / aud / hrd / info / hash=0 / no-temporal-layers / no-open-gop / min-keyint=23 / keyint=250 / gop-lookahead=0 / bframes=4 / b-adapt=2 / b-pyramid / bframe-bias=0 / rc-lookahead=25 / lookahead-slices=4 / scenecut=40 / hist-scenecut=0 / radl=0 / no-splice / no-intra-refresh / ctu=64 / min-cu-size=8 / rect / no-amp / max-tu-size=32 / tu-inter-depth=1 / tu-intra-depth=1 / limit-tu=0 / rdoq-level=2 / dynamic-rd=0.00 / no-ssim-rd / signhide / no-tskip / nr-intra=0 / nr-inter=0 / no-constrained-intra / no-strong-intra-smoothing / max-merge=3 / limit-refs=3 / limit-modes / me=3 / subme=3 / merange=57 / temporal-mvp / no-frame-dup / no-hme / weightp / no-weightb / no-analyze-src-pics / deblock=-3:-3 / no-sao / no-sao-non-deblock / rd=4 / selective-sao=0 / no-early-skip / rskip / no-fast-intra / no-tskip-fast / no-cu-lossless / no-b-intra / no-splitrd-skip / rdpenalty=0 / psy-rd=2.00 / psy-rdoq=1.00 / no-rd-refine / no-lossless / cbqpoffs=0 / crqpoffs=0 / rc=crf / crf=17.8 / qcomp=0.60 / qpstep=4 / stats-write=0 / stats-read=0 / vbv-maxrate=160000 / vbv-bufsize=160000 / vbv-init=0.9 / crf-max=0.0 / crf-min=0.0 / ipratio=1.40 / pbratio=1.30 / aq-mode=2 / aq-strength=1.00 / cutree / zone-count=0 / no-strict-cbr / qg-size=32 / no-rc-grain / qpmax=69 / qpmin=0 / no-const-vbv / sar=1 / overscan=0 / videoformat=5 / range=0 / colorprim=9 / transfer=16 / colormatrix=9 / chromaloc=1 / chromaloc-top=2 / chromaloc-bottom=2 / display-window=0 / master-display=G(13250,34500)B(7500,3000)R(34000,16000)WP(15635,16450)L(10000000,50) / cll=1000,76 / min-luma=0 / max-luma=1023 / log2-max-poc-lsb=8 / vui-timing-info / vui-hrd-info / slices=1 / no-opt-qp-pps / no-opt-ref-list-length-pps / no-multi-pass-opt-rps / scenecut-bias=0.05 / hist-threshold=0.03 / no-opt-cu-delta-qp / no-aq-motion / hdr10 / hdr10-opt / no-dhdr10-opt / no-idr-recovery-sei / analysis-reuse-level=0 / analysis-save-reuse-level=0 / analysis-load-reuse-level=0 / scale-factor=0 / refine-intra=0 / refine-inter=0 / refine-mv=1 / refine-ctu-distortion=0 / no-limit-sao / ctu-info=0 / no-lowpass-dct / refine-analysis-type=0 / copy-pic=1 / max-ausize-factor=1.0 / no-dynamic-refine / no-single-sei / no-hevc-aq / no-svt / no-field / qp-adaptation-range=1.00 / no-scenecut-aware-qpconformance-window-offsets / right=0 / bottom=0 / decoder-max-rate=0
Default                                  : Yes
Forced                                   : No
Color range                              : Limited
Color primaries                          : BT.2020
Transfer characteristics                 : PQ
Matrix coefficients                      : BT.2020 non-constant
Mastering display color primaries        : Display P3
Mastering display luminance              : min: 0.0050 cd/m2, max: 1000 cd/m2
Maximum Content Light Level              : 1000 cd/m2
Maximum Frame-Average Light Level        : 76 cd/m2

Audio #1
ID                                       : 2
Format                                   : DTS XLL X
Format/Info                              : Digital Theater Systems
Commercial name                          : DTS-HD Master Audio
Codec ID                                 : A_DTS
Duration                                 : 1 h 48 min
Bit rate mode                            : Variable
Bit rate                                 : 3 375 kb/s
Channel(s)                               : 8 channels
Channel(s)_Original                      : Object Based
ChannelLayout_Original                   : Object Based
Sampling rate                            : 48.0 kHz
Frame rate                               : 93.750 FPS (512 SPF)
Bit depth                                : 24 bits
Stream size                              : 2.57 GiB (7%)
Title                                    : Surround 7.1
Language                                 : English
Default                                  : Yes
Forced                                   : No

Audio #2
ID                                       : 3
Format                                   : FLAC
Format/Info                              : Free Lossless Audio Codec
Codec ID                                 : A_FLAC
Duration                                 : 1 h 48 min
Bit rate mode                            : Variable
Bit rate                                 : 806 kb/s
Channel(s)                               : 2 channels
Channel layout                           : L R
Sampling rate                            : 48.0 kHz
Frame rate                               : 11.719 FPS (4096 SPF)
Bit depth                                : 24 bits
Compression mode                         : Lossless
Stream size                              : 628 MiB (2%)
Title                                    : original
Writing library                          : libFLAC 1.3.2 (UTC 2017-01-01)
Language                                 : English
Default                                  : No
Forced                                   : No

Audio #3
ID                                       : 4
Format                                   : AAC LC
Format/Info                              : Advanced Audio Codec Low Complexity
Codec ID                                 : A_AAC-2
Duration                                 : 1 h 48 min
Bit rate                                 : 87.1 kb/s
Channel(s)                               : 2 channels
Channel layout                           : L R
Sampling rate                            : 48.0 kHz
Frame rate                               : 46.875 FPS (1024 SPF)
Compression mode                         : Lossy
Delay relative to video                  : 9 ms
Stream size                              : 67.8 MiB (0%)
Title                                    : commentary
Language                                 : English
Default                                  : No
Forced                                   : No

Text #1
ID                                       : 5
Format                                   : UTF-8
Codec ID                                 : S_TEXT/UTF8
Codec ID/Info                            : UTF-8 Plain Text
Duration                                 : 1 h 45 min
Bit rate                                 : 56 b/s
Count of elements                        : 1212
Stream size                              : 43.6 KiB (0%)
Language                                 : English
Default                                  : No
Forced                                   : No

Text #2
ID                                       : 6
Format                                   : UTF-8
Codec ID                                 : S_TEXT/UTF8
Codec ID/Info                            : UTF-8 Plain Text
Duration                                 : 1 h 48 min
Bit rate                                 : 97 b/s
Count of elements                        : 1544
Stream size                              : 77.9 KiB (0%)
Title                                    : commentary
Language                                 : English
Default                                  : No
Forced                                   : No

Text #3
ID                                       : 7
Format                                   : PGS
Muxing mode                              : zlib
Codec ID                                 : S_HDMV/PGS
Codec ID/Info                            : Picture based subtitle format used on BDs/HD-DVDs
Duration                                 : 1 h 45 min
Bit rate                                 : 36.6 kb/s
Count of elements                        : 2428
Stream size                              : 27.6 MiB (0%)
Language                                 : English
Default                                  : No
Forced                                   : No

Text #4
ID                                       : 8
Format                                   : PGS
Muxing mode                              : zlib
Codec ID                                 : S_HDMV/PGS
Codec ID/Info                            : Picture based subtitle format used on BDs/HD-DVDs
Duration                                 : 1 h 48 min
Bit rate                                 : 68.4 kb/s
Count of elements                        : 3108
Stream size                              : 53.2 MiB (0%)
Language                                 : German
Default                                  : No
Forced                                   : No

Text #5
ID                                       : 9
Format                                   : PGS
Muxing mode                              : zlib
Codec ID                                 : S_HDMV/PGS
Codec ID/Info                            : Picture based subtitle format used on BDs/HD-DVDs
Duration                                 : 1 h 46 min
Bit rate                                 : 31.3 kb/s
Count of elements                        : 2092
Stream size                              : 23.8 MiB (0%)
Language                                 : Italian
Default                                  : No
Forced                                   : No

Text #6
ID                                       : 10
Format                                   : PGS
Muxing mode                              : zlib
Codec ID                                 : S_HDMV/PGS
Codec ID/Info                            : Picture based subtitle format used on BDs/HD-DVDs
Duration                                 : 1 h 46 min
Bit rate                                 : 31.4 kb/s
Count of elements                        : 2092
Stream size                              : 23.8 MiB (0%)
Language                                 : Spanish
Default                                  : No
Forced                                   : No

Text #7
ID                                       : 11
Format                                   : PGS
Muxing mode                              : zlib
Codec ID                                 : S_HDMV/PGS
Codec ID/Info                            : Picture based subtitle format used on BDs/HD-DVDs
Duration                                 : 1 h 46 min
Bit rate                                 : 35.3 kb/s
Count of elements                        : 2090
Stream size                              : 26.8 MiB (0%)
Title                                    : commentary
Language                                 : German
Default                                  : No
Forced                                   : No

Text #8
ID                                       : 12
Format                                   : PGS
Muxing mode                              : zlib
Codec ID                                 : S_HDMV/PGS
Codec ID/Info                            : Picture based subtitle format used on BDs/HD-DVDs
Duration                                 : 1 h 48 min
Bit rate                                 : 64.3 kb/s
Count of elements                        : 3088
Stream size                              : 50.0 MiB (0%)
Title                                    : commentary
Language                                 : English
Default                                  : No
Forced                                   : No

Text #9
ID                                       : 13
Format                                   : PGS
Muxing mode                              : zlib
Codec ID                                 : S_HDMV/PGS
Codec ID/Info                            : Picture based subtitle format used on BDs/HD-DVDs
Duration                                 : 1 h 48 min
Bit rate                                 : 62.1 kb/s
Count of elements                        : 3108
Stream size                              : 48.3 MiB (0%)
Title                                    : commentary
Language                                 : Italian
Default                                  : No
Forced                                   : No

Text #10
ID                                       : 14
Format                                   : PGS
Muxing mode                              : zlib
Codec ID                                 : S_HDMV/PGS
Codec ID/Info                            : Picture based subtitle format used on BDs/HD-DVDs
Duration                                 : 1 h 48 min
Bit rate                                 : 63.4 kb/s
Count of elements                        : 3112
Stream size                              : 49.3 MiB (0%)
Title                                    : commentary
Language                                 : Spanish
Default                                  : No
Forced                                   : No

Menu
00:00:00.000                             : en:Chapter 01
00:02:20.306                             : en:Chapter 02
00:07:00.044                             : en:Chapter 03
00:11:06.624                             : en:Chapter 04
00:14:00.506                             : en:Chapter 05
00:17:54.156                             : en:Chapter 06
00:26:32.674                             : en:Chapter 07
00:34:50.922                             : en:Chapter 08
00:38:35.021                             : en:Chapter 09
00:46:38.295                             : en:Chapter 10
00:49:31.635                             : en:Chapter 11
00:58:41.142                             : en:Chapter 12
01:00:15.403                             : en:Chapter 13
01:04:01.546                             : en:Chapter 14
01:06:30.987                             : en:Chapter 15
01:12:24.923                             : en:Chapter 16
01:16:31.628                             : en:Chapter 17
01:17:39.780                             : en:Chapter 18
01:20:16.436                             : en:Chapter 19
01:23:35.010                             : en:Chapter 20
01:26:52.332                             : en:Chapter 21
01:32:05.603                             : en:Chapter 22
01:35:08.577                             : en:Chapter 23
01:40:50.210                             : en:Chapter 24
01:41:55.692                             : en:Chapter 25
01:47:16.054                             : en:Chapter 26


悠悠MP4_MP4电影下载_惊魂记/精神病人 Psycho.1960.THEATRiCAL.2160p.UHD.BluRay.X265.10bit.HDR.DTS-X.7.1-GETiT 36.58GB悠悠MP4_MP4电影下载_惊魂记/精神病人 Psycho.1960.THEATRiCAL.2160p.UHD.BluRay.X265.10bit.HDR.DTS-X.7.1-GETiT 36.58GB悠悠MP4_MP4电影下载_惊魂记/精神病人 Psycho.1960.THEATRiCAL.2160p.UHD.BluRay.X265.10bit.HDR.DTS-X.7.1-GETiT 36.58GB

                                                                                           

提示:如迅雷下载提示"任务出错"、"因版权无法下载",请尝试【迅雷5】
上传的附件:
最新回复 (0)
返回
本站所有资源均收集自互联网,没有提供影片资源存储, 也未参与录制、上传,若本站收录的资源无意侵犯了您的权益, 请联系邮箱:gogoimgs#gmail.com(#=@)