[更早] [欧美] [爱情] [BD-4K] 迷魂记/眩晕 Vertigo.1958.2160p.UHD.BluRay.x265.10bit.HDR.DTS-X.7.1-SWTYBLZ 20.39GB

uump4 14天前 48

悠悠MP4_MP4电影下载_迷魂记/眩晕 Vertigo.1958.2160p.UHD.BluRay.x265.10bit.HDR.DTS-X.7.1-SWTYBLZ 20.39GB
悠悠MP4_MP4电影下载_迷魂记/眩晕 Vertigo.1958.2160p.UHD.BluRay.x265.10bit.HDR.DTS-X.7.1-SWTYBLZ 20.39GB

◎译  名 迷魂记 / Alfred Hitchcock's Vertigo / 眩晕
◎片  名 Vertigo
◎年  代 1958
◎产  地 美国
◎类  别 爱情 / 悬疑 / 惊悚
◎语  言 英语
◎上映日期 1958-05-09(美国)
◎IMDb评分  8.3/10 from 348882 users
◎IMDb链接  https://www.imdb.com/title/tt0052357
◎豆瓣评分 8.6/10 from 74716 users
◎豆瓣链接 https://movie.douban.com/subject/1297294/
◎片  长 128 分钟
◎导  演 阿尔弗雷德·希区柯克 Alfred Hitchcock
◎编  剧 亚历克·科佩尔 Alec Coppel / 萨缪尔·A·泰勒 Samuel A. Taylor / 皮埃尔·布瓦洛 Pierre Boileau / 托马·纳西雅克 Thomas Narcejac / 马克斯韦尔·安德森 Maxwell Anderson
◎主  演 詹姆斯·斯图尔特 James Stewart
       金·诺瓦克 Kim Novak
       芭芭拉·贝尔·戈迪斯 Barbara Bel Geddes
       汤姆·赫尔莫 Tom Helmore
       亨瑞·琼斯 Henry Jones
       雷蒙德贝利 Raymond Bailey
       埃伦·科比 Ellen Corby
       康斯坦丁肖恩 Konstantin Shayne
       李·帕特里克 Lee Patrick
       丹尼·鲍沙其 Danny Borzage
       保罗·布亚尔 Paul Bryar
       贝丝·弗劳尔斯 Bess Flowers
       弗莱德·格兰姆 Fred Graham


◎标  签 希区柯克 | 悬疑 | 美国 | 惊悚 | 经典 | AlfredHitchcock | 1958 | 美国电影

◎简  介  

  退役警探约翰·弗格森(詹姆斯·斯图尔特 James Stewart 饰)的同学加文·埃尔斯特(汤姆·赫尔莫 Tom Helmore 饰)是造船商。他请求约翰跟踪自己的妻子,并称妻子经常被鬼魂附身。随后,约翰按照加文的指示,在厄尼餐厅见到了一位美丽的女人(金姆·诺瓦克 Kim Novak 饰)。经过跟踪,约翰发现女人确有不同寻常的行为:开车出门,去花店买花,去墓园在卡洛塔·巴尔德斯的碑前驻足,去荣勋宫博物馆凝视卡洛塔画像,最后进入麦基屈克旅馆并出现在二楼的一扇窗前。约翰随即进入旅馆调查,发现女人登记名为卡洛塔·巴尔德斯,但其房中无人。卡洛塔·巴尔德斯究竟是何方神圣,鬼魂真的能附身活人吗?

◎获奖情况  

  第31届奥斯卡金像奖(1959)
  最佳音响(提名) George Dutton
  最佳艺术指导和布景(提名) 萨姆·库默 / Frank R. McKelvy / Henry Bumstead / 哈尔·佩雷拉


Video
ID                                       : 1
Format                                   : HEVC
Format/Info                              : High Efficiency Video Coding
Format profile                           : Main 10@L5.1@High
HDR format                               : SMPTE ST 2086, HDR10 compatible
Codec ID                                 : V_MPEGH/ISO/HEVC
Duration                                 : 2 h 8 min
Bit rate                                 : 18.6 Mb/s
Width                                    : 3 840 pixels
Height                                   : 2 076 pixels
Display aspect ratio                     : 1.85:1
Frame rate mode                          : Constant
Frame rate                               : 23.976 (24000/1001/34539) FPS
Color space                              : YUV
Chroma subsampling                       : 4:2:0 (Type 2)
Bit depth                                : 10 bits
Bits/(Pixel*Frame)                       : 0.097
Stream size                              : 16.7 GiB (83%)
Title                                    : Vertigo.1958.2160p.UHD.BluRay.x265.10bit.HDR.DTS-X.7.1-SWTYBLZ
Writing library                          : x265 3.0_Au+10-74a8672ea4f7:[Windows][GCC 8.2.1][64 bit] 10bit
Encoding settings                        : cpuid=1111039 / frame-threads=6 / numa-pools=24,24,24,24 / wpp / no-pmode / no-pme / no-psnr / no-ssim / log-level=2 / input-csp=1 / input-res=3840x2076 / interlace=0 / total-frames=0 / level-idc=51 / high-tier=1 / uhd-bd=0 / ref=3 / no-allow-non-conformance / repeat-headers / annexb / aud / hrd / info / hash=0 / no-temporal-layers / no-open-gop / min-keyint=1 / keyint=24 / gop-lookahead=0 / bframes=4 / b-adapt=2 / b-pyramid / bframe-bias=0 / rc-lookahead=25 / lookahead-slices=4 / scenecut=40 / radl=0 / no-splice / no-intra-refresh / ctu=64 / min-cu-size=8 / no-rect / no-amp / max-tu-size=32 / tu-inter-depth=1 / tu-intra-depth=1 / limit-tu=0 / rdoq-level=0 / dynamic-rd=0.00 / no-ssim-rd / signhide / no-tskip / nr-intra=0 / nr-inter=0 / no-constrained-intra / strong-intra-smoothing / max-merge=2 / limit-refs=3 / no-limit-modes / me=1 / subme=2 / merange=57 / temporal-mvp / weightp / no-weightb / no-analyze-src-pics / deblock=0:0 / no-sao / no-sao-non-deblock / rd=3 / no-early-skip / rskip / no-fast-intra / no-tskip-fast / no-cu-lossless / no-b-intra / no-splitrd-skip / rdpenalty=0 / psy-rd=2.00 / psy-rdoq=0.00 / no-rd-refine / no-lossless / cbqpoffs=0 / crqpoffs=0 / rc=crf / crf=15.0 / qcomp=0.60 / qpstep=4 / stats-write=0 / stats-read=0 / vbv-maxrate=160000 / vbv-bufsize=160000 / vbv-init=0.9 / crf-max=0.0 / crf-min=0.0 / ipratio=1.40 / pbratio=1.30 / aq-mode=1 / aq-strength=1.00 / cutree / zone-count=0 / no-strict-cbr / qg-size=32 / no-rc-grain / qpmax=69 / qpmin=0 / no-const-vbv / sar=1 / overscan=0 / videoformat=5 / range=0 / colorprim=9 / transfer=16 / colormatrix=9 / chromaloc=1 / chromaloc-top=2 / chromaloc-bottom=2 / display-window=0 / master-display=G(13250,34500)B(7500,3000)R(34000,16000)WP(15635,16450)L(10000000,50) / max-cll=1000,63 / min-luma=0 / max-luma=1023 / log2-max-poc-lsb=8 / vui-timing-info / vui-hrd-info / slices=1 / opt-qp-pps / opt-ref-list-length-pps / no-multi-pass-opt-rps / scenecut-bias=0.05 / no-opt-cu-delta-qp / no-aq-motion / hdr / hdr-opt / no-dhdr10-opt / no-idr-recovery-sei / analysis-reuse-level=5 / scale-factor=0 / refine-intra=0 / refine-inter=0 / refine-mv=0 / refine-ctu-distortion=0 / no-limit-sao / ctu-info=0 / no-lowpass-dct / refine-analysis-type=1966 / copy-pic=1 / max-ausize-factor=1.0 / no-dynamic-refine / no-single-sei / no-hevc-aq / no-svt / qp-adaptation-range=1.00
Language                                 : English
Default                                  : Yes
Forced                                   : No
Color range                              : Limited
Color primaries                          : BT.2020
Transfer characteristics                 : PQ
Matrix coefficients                      : BT.2020 non-constant
Mastering display color primaries        : Display P3
Mastering display luminance              : min: 0.0050 cd/m2, max: 1000 cd/m2
Maximum Content Light Level              : 1000 cd/m2
Maximum Frame-Average Light Level        : 63 cd/m2

Audio #1
ID                                       : 2
ID in the original source medium         : 4352 (0x1100)
Format                                   : DTS XLL X
Format/Info                              : Digital Theater Systems
Commercial name                          : DTS-HD Master Audio
Codec ID                                 : A_DTS
Duration                                 : 2 h 8 min
Bit rate mode                            : Variable
Bit rate                                 : 3 188 kb/s
Channel(s)                               : 8 channels
Channel(s)_Original                      : Object Based
ChannelLayout_Original                   : Object Based
Sampling rate                            : 48.0 kHz
Frame rate                               : 93.750 FPS (512 SPF)
Bit depth                                : 24 bits
Stream size                              : 2.86 GiB (14%)
Title                                    : Vertigo.1958.2160p.UHD.BluRay.x265.10bit.HDR.DTS-X.7.1-SWTYBLZ
Language                                 : English
Default                                  : Yes
Forced                                   : No
Original source medium                   : Blu-ray

Audio #2
ID                                       : 3
Format                                   : AC-3
Format/Info                              : Audio Coding 3
Commercial name                          : Dolby Digital
Codec ID                                 : A_AC3
Duration                                 : 2 h 8 min
Bit rate mode                            : Constant
Bit rate                                 : 640 kb/s
Channel(s)                               : 6 channels
Channel layout                           : L R C LFE Ls Rs
Sampling rate                            : 48.0 kHz
Frame rate                               : 31.250 FPS (1536 SPF)
Compression mode                         : Lossy
Stream size                              : 588 MiB (3%)
Title                                    : Vertigo.1958.2160p.UHD.BluRay.x265.10bit.HDR.DTS-X.7.1-SWTYBLZ
Language                                 : English
Service kind                             : Complete Main
Default                                  : No
Forced                                   : No

Text #1
ID                                       : 4
Format                                   : UTF-8
Codec ID                                 : S_TEXT/UTF8
Codec ID/Info                            : UTF-8 Plain Text
Duration                                 : 2 h 3 min
Bit rate                                 : 50 b/s
Count of elements                        : 1288
Stream size                              : 45.3 KiB (0%)
Title                                    : English-SRT
Language                                 : English
Default                                  : Yes
Forced                                   : No

Text #2
ID                                       : 5
ID in the original source medium         : 4768 (0x12A0)
Format                                   : PGS
Muxing mode                              : zlib
Codec ID                                 : S_HDMV/PGS
Codec ID/Info                            : Picture based subtitle format used on BDs/HD-DVDs
Duration                                 : 2 h 4 min
Bit rate                                 : 33.8 kb/s
Count of elements                        : 2687
Stream size                              : 30.0 MiB (0%)
Title                                    : English-PGS
Language                                 : English
Default                                  : No
Forced                                   : No
Original source medium                   : Blu-ray

Text #3
ID                                       : 6
ID in the original source medium         : 4769 (0x12A1)
Format                                   : PGS
Muxing mode                              : zlib
Codec ID                                 : S_HDMV/PGS
Codec ID/Info                            : Picture based subtitle format used on BDs/HD-DVDs
Duration                                 : 2 h 3 min
Bit rate                                 : 33.1 kb/s
Count of elements                        : 2586
Stream size                              : 29.3 MiB (0%)
Title                                    : German-PGS
Language                                 : German
Default                                  : No
Forced                                   : No
Original source medium                   : Blu-ray

Text #4
ID                                       : 7
ID in the original source medium         : 4770 (0x12A2)
Format                                   : PGS
Muxing mode                              : zlib
Codec ID                                 : S_HDMV/PGS
Codec ID/Info                            : Picture based subtitle format used on BDs/HD-DVDs
Duration                                 : 2 h 3 min
Bit rate                                 : 28.4 kb/s
Count of elements                        : 2586
Stream size                              : 25.2 MiB (0%)
Title                                    : Italian-PGS
Language                                 : Italian
Default                                  : No
Forced                                   : No
Original source medium                   : Blu-ray

Text #5
ID                                       : 8
ID in the original source medium         : 4771 (0x12A3)
Format                                   : PGS
Muxing mode                              : zlib
Codec ID                                 : S_HDMV/PGS
Codec ID/Info                            : Picture based subtitle format used on BDs/HD-DVDs
Duration                                 : 2 h 3 min
Bit rate                                 : 29.1 kb/s
Count of elements                        : 2584
Stream size                              : 25.8 MiB (0%)
Title                                    : Spanish-PGS
Language                                 : Spanish
Default                                  : No
Forced                                   : No
Original source medium                   : Blu-ray

Menu
00:00:00.000                             : en:Chapter 01
00:03:24.996                             : en:Chapter 02
00:05:00.717                             : en:Chapter 03
00:11:19.970                             : en:Chapter 04
00:16:52.970                             : en:Chapter 05
00:22:13.957                             : en:Chapter 06
00:25:42.707                             : en:Chapter 07
00:27:45.955                             : en:Chapter 08
00:33:52.572                             : en:Chapter 09
00:38:19.255                             : en:Chapter 10
00:40:18.124                             : en:Chapter 11
00:42:56.574                             : en:Chapter 12
00:43:56.091                             : en:Chapter 13
00:53:08.101                             : en:Chapter 14
00:58:23.500                             : en:Chapter 15
01:02:04.971                             : en:Chapter 16
01:05:31.260                             : en:Chapter 17
01:08:35.945                             : en:Chapter 18
01:12:31.096                             : en:Chapter 19
01:16:00.222                             : en:Chapter 20
01:18:17.150                             : en:Chapter 21
01:23:47.689                             : en:Chapter 22
01:25:26.371                             : en:Chapter 23
01:29:02.879                             : en:Chapter 24
01:31:39.619                             : en:Chapter 25
01:38:07.172                             : en:Chapter 26
01:42:22.427                             : en:Chapter 27
01:45:29.072                             : en:Chapter 28
01:49:14.965                             : en:Chapter 29
01:52:06.553                             : en:Chapter 30
01:57:30.168                             : en:Chapter 31
01:59:29.162                             : en:Chapter 32
02:02:06.027                             : en:Chapter 33
02:05:58.092                             : en:Chapter 34


悠悠MP4_MP4电影下载_迷魂记/眩晕 Vertigo.1958.2160p.UHD.BluRay.x265.10bit.HDR.DTS-X.7.1-SWTYBLZ 20.39GB悠悠MP4_MP4电影下载_迷魂记/眩晕 Vertigo.1958.2160p.UHD.BluRay.x265.10bit.HDR.DTS-X.7.1-SWTYBLZ 20.39GB悠悠MP4_MP4电影下载_迷魂记/眩晕 Vertigo.1958.2160p.UHD.BluRay.x265.10bit.HDR.DTS-X.7.1-SWTYBLZ 20.39GB悠悠MP4_MP4电影下载_迷魂记/眩晕 Vertigo.1958.2160p.UHD.BluRay.x265.10bit.HDR.DTS-X.7.1-SWTYBLZ 20.39GB悠悠MP4_MP4电影下载_迷魂记/眩晕 Vertigo.1958.2160p.UHD.BluRay.x265.10bit.HDR.DTS-X.7.1-SWTYBLZ 20.39GB悠悠MP4_MP4电影下载_迷魂记/眩晕 Vertigo.1958.2160p.UHD.BluRay.x265.10bit.HDR.DTS-X.7.1-SWTYBLZ 20.39GB悠悠MP4_MP4电影下载_迷魂记/眩晕 Vertigo.1958.2160p.UHD.BluRay.x265.10bit.HDR.DTS-X.7.1-SWTYBLZ 20.39GB悠悠MP4_MP4电影下载_迷魂记/眩晕 Vertigo.1958.2160p.UHD.BluRay.x265.10bit.HDR.DTS-X.7.1-SWTYBLZ 20.39GB

                                                                                           

提示:如迅雷下载提示"任务出错"、"因版权无法下载",请尝试【迅雷5】
上传的附件:
最新回复 (0)
返回
本站所有资源均收集自互联网,没有提供影片资源存储, 也未参与录制、上传,若本站收录的资源无意侵犯了您的权益, 请联系邮箱:gogoimgs#gmail.com(#=@)