[更早] [其他] [科幻] [WEB-1080P] 卫星 Sputnik.2020.RUSSIAN.1080p.AMZN.WEBRip.DDP5.1.x264-NTG 7.49GB

uump4 1月前 148

帖子完整标题:卫星 Sputnik.2020.RUSSIAN.1080p.AMZN.WEBRip.DDP5.1.x264-NTG 7.49GB

悠悠MP4_MP4电影下载_卫星 Sputnik.2020.RUSSIAN.1080p.AMZN.WEBRip.DDP5.1.x264-NTG 7.49GB

◎译  名 卫星 / Satellite / Sputnik / 人造卫星 / 寄生异形
◎片  名 Спутник
◎年  代 2020
◎产  地 俄罗斯
◎类  别 科幻 / 恐怖
◎语  言 俄语
◎上映日期 2020-04-15(翠贝卡电影节) / 2020-04-23(俄罗斯)
◎IMDb评分  6.0/10 from 1171 users
◎IMDb链接  https://www.imdb.com/title/tt11905962
◎豆瓣评分 5.9/10 from 2324 users
◎豆瓣链接 https://movie.douban.com/subject/34852765/
◎片  长 105分钟
◎导  演 Egor Abramenko
◎编  剧 奥列格·马洛维奇克 Oleg Malovichko / Andrei Zolotarev
◎主  演 奥莎娜·阿金什那 Oksana Akinshina
       费奥多尔·邦达尔丘克 Fyodor Bondarchuk
       彼得·费奥多罗夫 Pyotr Fyodorov
       安东·瓦西利耶夫 Anton Vasilev


◎标  签 科幻 | 俄罗斯 | 惊悚 | 外星人 | 恐怖 | 2020 | 电影 | 欧洲电影

◎简  介 悠悠MP4_MP4电影下载_卫星 Sputnik.2020.RUSSIAN.1080p.AMZN.WEBRip.DDP5.1.x264-NTG 7.49GB  

  苏联,1983年。苏联宇航员兼英雄康斯坦丁·维什尼亚科夫(Konstantin Veshnyakov)将一个外星生物带入了自己的身体。在一个封闭的城市神经生理学家塔蒂扬娜·克里莫娃(Tatyana Klimova)的秘密实验室中,她试图从宇航员中解救宇航员时,发现她对患者的感觉远不止是专业兴趣

Video
ID                                       : 1
Format                                   : AVC
Format/Info                              : Advanced Video Codec
Format profile                           : [email protected]
Format settings                          : CABAC / 4 Ref Frames
Format settings, CABAC                   : Yes
Format settings, Reference frames        : 4 frames
Codec ID                                 : V_MPEG4/ISO/AVC
Duration                                 : 1 h 53 min
Bit rate mode                            : Constant
Bit rate                                 : 8 778 kb/s
Nominal bit rate                         : 10 000 kb/s
Width                                    : 1 920 pixels
Height                                   : 816 pixels
Display aspect ratio                     : 2.35:1
Frame rate mode                          : Constant
Frame rate                               : 24.000 FPS
Color space                              : YUV
Chroma subsampling                       : 4:2:0
Bit depth                                : 8 bits
Scan type                                : Progressive
Bits/(Pixel*Frame)                       : 0.233
Stream size                              : 6.98 GiB (93%)
Default                                  : Yes
Forced                                   : No
Color range                              : Limited
Color primaries                          : BT.709
Transfer characteristics                 : BT.709
Matrix coefficients                      : BT.709

Audio
ID                                       : 2
Format                                   : E-AC-3
Format/Info                              : Enhanced AC-3
Commercial name                          : Dolby Digital Plus
Codec ID                                 : A_EAC3
Duration                                 : 1 h 53 min
Bit rate mode                            : Constant
Bit rate                                 : 640 kb/s
Channel(s)                               : 6 channels
Channel layout                           : L R C LFE Ls Rs
Sampling rate                            : 48.0 kHz
Frame rate                               : 31.250 FPS (1536 SPF)
Compression mode                         : Lossy
Stream size                              : 521 MiB (7%)
Language                                 : Russian
Service kind                             : Complete Main
Default                                  : Yes
Forced                                   : No

Text #1
ID                                       : 3
Format                                   : UTF-8
Codec ID                                 : S_TEXT/UTF8
Codec ID/Info                            : UTF-8 Plain Text
Duration                                 : 1 h 47 min
Bit rate                                 : 39 b/s
Count of elements                        : 971
Stream size                              : 31.1 KiB (0%)
Language                                 : English
Default                                  : No
Forced                                   : No

Text #2
ID                                       : 4
Format                                   : UTF-8
Codec ID                                 : S_TEXT/UTF8
Codec ID/Info                            : UTF-8 Plain Text
Duration                                 : 1 h 47 min
Bit rate                                 : 39 b/s
Count of elements                        : 971
Stream size                              : 31.1 KiB (0%)
Title                                    : SDH
Language                                 : English
Default                                  : No
Forced                                   : No


悠悠MP4_MP4电影下载_卫星 Sputnik.2020.RUSSIAN.1080p.AMZN.WEBRip.DDP5.1.x264-NTG 7.49GB悠悠MP4_MP4电影下载_卫星 Sputnik.2020.RUSSIAN.1080p.AMZN.WEBRip.DDP5.1.x264-NTG 7.49GB


提示:如迅雷下载提示"任务出错"、"因版权无法下载",请尝试【迅雷5】
上传的附件:
最新回复 (0)
返回
本站所有资源均收集自互联网,没有提供影片资源存储, 也未参与录制、上传,若本站收录的资源无意侵犯了您的权益, 请联系邮箱:gogoimgs#gmail.com(#=@)