[更早] [其他] [动作] [WEB-1080P] 沉默/沉默不语 The.Silencing.2020.1080p.AMZN.WEBRip.DDP5.1.x264-NTG 5.38GB

uump4 1月前 143

帖子完整标题:沉默/沉默不语 The.Silencing.2020.1080p.AMZN.WEBRip.DDP5.1.x264-NTG 5.38GB

悠悠MP4_MP4电影下载_沉默/沉默不语 The.Silencing.2020.1080p.AMZN.WEBRip.DDP5.1.x264-NTG 5.38GB

◎译  名 沉默 / 沉默不语
◎片  名 The Silencing
◎年  代 2020
◎产  地 美国 / 加拿大
◎类  别 动作 / 惊悚 / 犯罪
◎语  言 英语
◎上映日期 2020-07-16(美国)
◎IMDb链接  https://www.imdb.com/title/tt7149730
◎豆瓣评分 0/10 from 0 users
◎豆瓣链接 https://movie.douban.com/subject/30216114/
◎导  演 罗宾·普劳特 Robin Pront
◎编  剧 Micah Ranum
◎主  演 安娜贝拉·沃丽丝 Annabelle Wallis
       扎恩·迈克拉农 Zahn McClarnon
       赫洛·费因斯-提芬 Hero Fiennes-Tiffin
       尼古拉·科斯特-瓦尔道 Nikolaj Coster-Waldau
       梅兰妮·斯科洛凡诺 Melanie Scrofano
       Josh Cruddas
       Brielle Robillard
       Danielle Ryan
       Kayla Dumont
       Heather Stevenson
       肖恩·史密斯 Shaun Smyth
       莎农·卡诺瓦斯 Sharon Canovas
       夏洛特·林赛·马荣 Charlotte Lindsay Marron
       Justin James Remeikis
       Bart Rochon


◎标  签 犯罪 | 美国电影 | 惊悚 | 剧情 | 电影 | 尼古拉·科斯特-瓦尔道 | 安娜贝拉·沃丽丝 | 未上映

◎简  介 悠悠MP4_MP4电影下载_沉默/沉默不语 The.Silencing.2020.1080p.AMZN.WEBRip.DDP5.1.x264-NTG 5.38GB  

  一位在野生动物保护区生活的猎人被迫卷入了一场致命的猫捉老鼠的游戏,他和当地治安官出发去追踪一名凶手,而凶手可能正是几年前绑架了他的女儿的神秘人。

Video
ID                                       : 1
Format                                   : AVC
Format/Info                              : Advanced Video Codec
Format profile                           : [email protected]
Format settings                          : CABAC / 4 Ref Frames
Format settings, CABAC                   : Yes
Format settings, Reference frames        : 4 frames
Codec ID                                 : V_MPEG4/ISO/AVC
Duration                                 : 1 h 34 min
Bit rate mode                            : Constant
Bit rate                                 : 7 504 kb/s
Nominal bit rate                         : 10 000 kb/s
Width                                    : 1 920 pixels
Height                                   : 800 pixels
Display aspect ratio                     : 2.40:1
Frame rate mode                          : Constant
Frame rate                               : 23.976 (24000/1001/189150) FPS
Color space                              : YUV
Chroma subsampling                       : 4:2:0
Bit depth                                : 8 bits
Scan type                                : Progressive
Bits/(Pixel*Frame)                       : 0.204
Stream size                              : 4.95 GiB (92%)
Default                                  : Yes
Forced                                   : No
Color range                              : Limited
Color primaries                          : BT.709
Transfer characteristics                 : BT.709
Matrix coefficients                      : BT.709

Audio
ID                                       : 2
Format                                   : E-AC-3
Format/Info                              : Enhanced AC-3
Commercial name                          : Dolby Digital Plus
Codec ID                                 : A_EAC3
Duration                                 : 1 h 34 min
Bit rate mode                            : Constant
Bit rate                                 : 640 kb/s
Channel(s)                               : 6 channels
Channel layout                           : L R C LFE Ls Rs
Sampling rate                            : 48.0 kHz
Frame rate                               : 31.250 FPS (1536 SPF)
Compression mode                         : Lossy
Stream size                              : 433 MiB (8%)
Language                                 : English
Service kind                             : Complete Main
Default                                  : Yes
Forced                                   : No

Text #1
ID                                       : 3
Format                                   : UTF-8
Codec ID                                 : S_TEXT/UTF8
Codec ID/Info                            : UTF-8 Plain Text
Duration                                 : 1 h 25 min
Bit rate                                 : 30 b/s
Count of elements                        : 685
Stream size                              : 18.9 KiB (0%)
Language                                 : English
Default                                  : No
Forced                                   : No

Text #2
ID                                       : 4
Format                                   : UTF-8
Codec ID                                 : S_TEXT/UTF8
Codec ID/Info                            : UTF-8 Plain Text
Duration                                 : 1 h 28 min
Bit rate                                 : 33 b/s
Count of elements                        : 848
Stream size                              : 22.0 KiB (0%)
Title                                    : SDH
Language                                 : English
Default                                  : No
Forced                                   : No


悠悠MP4_MP4电影下载_沉默/沉默不语 The.Silencing.2020.1080p.AMZN.WEBRip.DDP5.1.x264-NTG 5.38GB悠悠MP4_MP4电影下载_沉默/沉默不语 The.Silencing.2020.1080p.AMZN.WEBRip.DDP5.1.x264-NTG 5.38GB悠悠MP4_MP4电影下载_沉默/沉默不语 The.Silencing.2020.1080p.AMZN.WEBRip.DDP5.1.x264-NTG 5.38GB


提示:如迅雷下载提示"任务出错"、"因版权无法下载",请尝试【迅雷5】
上传的附件:
最新回复 (0)
返回
本站所有资源均收集自互联网,没有提供影片资源存储, 也未参与录制、上传,若本站收录的资源无意侵犯了您的权益, 请联系邮箱:gogoimgs#gmail.com(#=@)