[2019] [其他] [剧情] [BD-Remux] 众神之谷 Valley.of.the.Gods.2019.1080p.BluRay.REMUX.AVC.DTS-HD.MA.5.1-FGT 15.79GB

uump4 1月前 455

帖子完整标题:众神之谷 Valley.of.the.Gods.2019.1080p.BluRay.REMUX.AVC.DTS-HD.MA.5.1-FGT 15.79GB

悠悠MP4_MP4电影下载_众神之谷 Valley.of.the.Gods.2019.1080p.BluRay.REMUX.AVC.DTS-HD.MA.5.1-FGT 15.79GB

◎译  名 众神之谷 / DOLINA BOGóW
◎片  名 Valley of the Gods
◎年  代 2019
◎产  地 波兰 / 卢森堡
◎类  别 剧情
◎语  言 英语
◎上映日期 2019-09-17(格丁尼亚波兰电影节) / 2020-08-11(美国)
◎IMDb评分  6.1/10 from 60 users
◎IMDb链接  https://www.imdb.com/title/tt4523530
◎豆瓣评分 0/10 from 0 users
◎豆瓣链接 https://movie.douban.com/subject/26346332/
◎片  长 131分钟
◎导  演 莱彻·玛祖斯基 Lech Majewski
◎编  剧 莱彻·玛祖斯基 Lech Majewski
◎主  演 乔什·哈奈特 Josh Hartnett
       约翰·马尔科维奇 John Malkovich
       杰米·雷·纽曼 Jaime Ray Newman
       约翰·瑞斯-戴维斯 John Rhys-Davies
       贝纳尼丝·玛尔洛 Bérénice Marlohe
       凯尔·杜拉 Keir Dullea
       托卡拉·克利福德 Tokala Clifford
       萨吉诺·格兰特 Saginaw Grant
       马雷克·普罗博什 Marek Probosz
       克里斯·丹尼齐奥 Cris D'Annunzio
       大卫·普莱斯 David L. Price
       莱赫·德布里克 Lech Dyblik
       Joseph Runningfox
       Steven Skyler
       John A. Lorenz


◎标  签 乔什·哈奈特 | 科幻 | 电影 | 波兰电影 | 奇幻 | 波兰 | 卢森堡 | 剧情

◎简  介 悠悠MP4_MP4电影下载_众神之谷 Valley.of.the.Gods.2019.1080p.BluRay.REMUX.AVC.DTS-HD.MA.5.1-FGT 15.79GB  

  故事围绕亿万富翁作家约翰·埃卡斯(哈奈特饰)及他创建的富有神秘气息的理想社会展开。

Video
ID                                       : 1
ID in the original source medium         : 4113 (0x1011)
Format                                   : AVC
Format/Info                              : Advanced Video Codec
Format profile                           : [email protected]
Format settings                          : CABAC / 4 Ref Frames
Format settings, CABAC                   : Yes
Format settings, Reference frames        : 4 frames
Codec ID                                 : V_MPEG4/ISO/AVC
Duration                                 : 2 h 6 min
Bit rate mode                            : Variable
Bit rate                                 : 15.1 Mb/s
Maximum bit rate                         : 16.0 Mb/s
Width                                    : 1 920 pixels
Height                                   : 1 080 pixels
Display aspect ratio                     : 16:9
Frame rate mode                          : Constant
Frame rate                               : 24.000 FPS
Color space                              : YUV
Chroma subsampling                       : 4:2:0
Bit depth                                : 8 bits
Scan type                                : Progressive
Bits/(Pixel*Frame)                       : 0.303
Stream size                              : 13.4 GiB (85%)
Title                                    : Valley.of.the.Gods.2019.1080p.BluRay.REMUX.AVC.DTS-HD.MA.5.1-FGT
Language                                 : English
Default                                  : No
Forced                                   : No
Original source medium                   : Blu-ray

Audio #1
ID                                       : 2
ID in the original source medium         : 4352 (0x1100)
Format                                   : DTS XLL
Format/Info                              : Digital Theater Systems
Commercial name                          : DTS-HD Master Audio
Codec ID                                 : A_DTS
Duration                                 : 2 h 6 min
Bit rate mode                            : Variable
Bit rate                                 : 2 357 kb/s
Channel(s)                               : 6 channels
Channel layout                           : C L R Ls Rs LFE
Sampling rate                            : 48.0 kHz
Frame rate                               : 93.750 FPS (512 SPF)
Bit depth                                : 16 bits
Compression mode                         : Lossless
Stream size                              : 2.09 GiB (13%)
Title                                    : Valley.of.the.Gods.2019.1080p.BluRay.REMUX.AVC.DTS-HD.MA.5.1-FGT
Language                                 : English
Default                                  : Yes
Forced                                   : No
Original source medium                   : Blu-ray

Audio #2
ID                                       : 3
ID in the original source medium         : 4353 (0x1101)
Format                                   : AC-3
Format/Info                              : Audio Coding 3
Commercial name                          : Dolby Digital
Codec ID                                 : A_AC3
Duration                                 : 2 h 6 min
Bit rate mode                            : Constant
Bit rate                                 : 384 kb/s
Channel(s)                               : 2 channels
Channel layout                           : L R
Sampling rate                            : 48.0 kHz
Frame rate                               : 31.250 FPS (1536 SPF)
Bit depth                                : 16 bits
Compression mode                         : Lossy
Stream size                              : 348 MiB (2%)
Title                                    : Valley.of.the.Gods.2019.1080p.BluRay.REMUX.AVC.DTS-HD.MA.5.1-FGT
Language                                 : English
Service kind                             : Complete Main
Default                                  : No
Forced                                   : No
Original source medium                   : Blu-ray

Text #1
ID                                       : 4
Format                                   : UTF-8
Codec ID                                 : S_TEXT/UTF8
Codec ID/Info                            : UTF-8 Plain Text
Duration                                 : 1 h 53 min
Bit rate                                 : 19 b/s
Count of elements                        : 580
Stream size                              : 16.5 KiB (0%)
Title                                    : English-SRT
Language                                 : English
Default                                  : Yes
Forced                                   : No

Text #2
ID                                       : 5
ID in the original source medium         : 4608 (0x1200)
Format                                   : PGS
Muxing mode                              : zlib
Codec ID                                 : S_HDMV/PGS
Codec ID/Info                            : Picture based subtitle format used on BDs/HD-DVDs
Duration                                 : 1 h 53 min
Bit rate                                 : 12.9 kb/s
Count of elements                        : 988
Stream size                              : 10.5 MiB (0%)
Title                                    : English-PGS
Language                                 : English
Default                                  : No
Forced                                   : No
Original source medium                   : Blu-ray

Menu
00:00:00.000                             : en:Chapter 01
00:10:02.791                             : en:Chapter 02
00:16:57.208                             : en:Chapter 03
00:25:02.625                             : en:Chapter 04
00:40:19.750                             : en:Chapter 05
00:45:17.416                             : en:Chapter 06
00:53:31.833                             : en:Chapter 07
01:08:04.916                             : en:Chapter 08
01:19:54.750                             : en:Chapter 09
01:35:46.875                             : en:Chapter 10
01:48:07.541                             : en:Chapter 11
02:00:20.833                             : en:Chapter 12


悠悠MP4_MP4电影下载_众神之谷 Valley.of.the.Gods.2019.1080p.BluRay.REMUX.AVC.DTS-HD.MA.5.1-FGT 15.79GB悠悠MP4_MP4电影下载_众神之谷 Valley.of.the.Gods.2019.1080p.BluRay.REMUX.AVC.DTS-HD.MA.5.1-FGT 15.79GB悠悠MP4_MP4电影下载_众神之谷 Valley.of.the.Gods.2019.1080p.BluRay.REMUX.AVC.DTS-HD.MA.5.1-FGT 15.79GB


提示:如迅雷下载提示"任务出错"、"因版权无法下载",请尝试【迅雷5】
上传的附件:
最新回复 (0)
返回
本站所有资源均收集自互联网,没有提供影片资源存储, 也未参与录制、上传,若本站收录的资源无意侵犯了您的权益, 请联系邮箱:gogoimgs#gmail.com(#=@)