[更早] [其他] [科幻] [BD-Remux] 异界 Coma.2019.RUSSIAN.1080p.BluRay.REMUX.AVC.DTS-HD.MA.5.1-FGT 33.07GB

uump4 1月前 201

帖子完整标题:异界 Coma.2019.RUSSIAN.1080p.BluRay.REMUX.AVC.DTS-HD.MA.5.1-FGT 33.07GB

悠悠MP4_MP4电影下载_异界 Coma.2019.RUSSIAN.1080p.BluRay.REMUX.AVC.DTS-HD.MA.5.1-FGT 33.07GB

◎译  名 异界 / Koma / The Coma / 昏迷
◎片  名 Кома
◎年  代 2020
◎产  地 俄罗斯
◎类  别 科幻
◎语  言 俄语
◎上映日期 2020-01-30(俄罗斯)
◎IMDb评分  6.5/10 from 2299 users
◎IMDb链接  https://www.imdb.com/title/tt6087226
◎豆瓣评分 6.3/10 from 14338 users
◎豆瓣链接 https://movie.douban.com/subject/30264504/
◎片  长 111分钟
◎导  演 尼基塔·阿格诺夫 Nikita Argunov
◎编  剧 尼基塔·阿格诺夫 Nikita Argunov / 提莫非·邓肯 Timofei Dekin / 阿莱克西·克莱福科维奇 Aleksey Gravitskiy
◎主  演 林奈·穆罕默托夫 Rinal Mukhametov
       柳波芙·阿克肖诺娃 Lyubov Aksyonova
       安东·庞布施尼 Anton Pampushnyy
       米洛斯·比柯维奇 Milos Bikovic
       康斯坦丁·拉夫罗年科 Konstantin Lavronenko
       阿列克谢·谢列布里亚科夫 Aleksey Serebryakov
       维伦·巴比切夫 Vilen Babichev
       Polina Kuzminskaya


◎标  签 科幻 | 俄罗斯 | 科幻片 | 科幻奇幻 | 俄罗斯电影 | 悬疑 | 惊悚 | 2019

◎简  介 悠悠MP4_MP4电影下载_异界 Coma.2019.RUSSIAN.1080p.BluRay.REMUX.AVC.DTS-HD.MA.5.1-FGT 33.07GB  

  在一场巨大而神秘的事故之后,一位年轻有才华的建筑师在一个与现实世界相似的奇异世界里苏醒,这个世界建立在这里人民的记忆之上,而这些人则处于深度昏迷之中。由于这些人的记忆力参差不齐、混乱、不稳定,导致奇怪的记忆和回忆——城市、冰川、河流可以共存在一个房间里,所有的物理定律都可以被打破,建筑师必须找到他们昏迷的具体规律,才能找到通往现实世界的出口。就在他与命运抗争的同时遇到了真爱,而经历此次昏迷之后,他发现自己不得不重新认识这个世界……

Video
ID                                       : 1
ID in the original source medium         : 4113 (0x1011)
Format                                   : AVC
Format/Info                              : Advanced Video Codec
Format profile                           : [email protected]
Format settings                          : CABAC / 4 Ref Frames
Format settings, CABAC                   : Yes
Format settings, Reference frames        : 4 frames
Codec ID                                 : V_MPEG4/ISO/AVC
Duration                                 : 1 h 51 min
Bit rate mode                            : Variable
Bit rate                                 : 34.5 Mb/s
Maximum bit rate                         : 36.0 Mb/s
Width                                    : 1 920 pixels
Height                                   : 1 080 pixels
Display aspect ratio                     : 16:9
Frame rate mode                          : Constant
Frame rate                               : 23.976 (24000/1001/189150) FPS
Color space                              : YUV
Chroma subsampling                       : 4:2:0
Bit depth                                : 8 bits
Scan type                                : Progressive
Bits/(Pixel*Frame)                       : 0.693
Stream size                              : 26.7 GiB (81%)
Title                                    : Coma.2019.RUSSIAN.1080p.BluRay.REMUX.AVC.DTS-HD.MA.5.1-FGT
Language                                 : English
Default                                  : No
Forced                                   : No
Original source medium                   : Blu-ray

Audio #1
ID                                       : 2
ID in the original source medium         : 4353 (0x1101)
Format                                   : DTS XLL
Format/Info                              : Digital Theater Systems
Commercial name                          : DTS-HD Master Audio
Codec ID                                 : A_DTS
Duration                                 : 1 h 51 min
Bit rate mode                            : Variable
Bit rate                                 : 4 020 kb/s
Channel(s)                               : 6 channels
Channel layout                           : C L R Ls Rs LFE
Sampling rate                            : 48.0 kHz
Frame rate                               : 93.750 FPS (512 SPF)
Bit depth                                : 24 bits
Compression mode                         : Lossless
Stream size                              : 3.12 GiB (9%)
Title                                    : Coma.2019.RUSSIAN.1080p.BluRay.REMUX.AVC.DTS-HD.MA.5.1-FGT
Language                                 : Russian
Default                                  : Yes
Forced                                   : No
Original source medium                   : Blu-ray

Audio #2
ID                                       : 3
ID in the original source medium         : 4352 (0x1100)
Format                                   : DTS XLL
Format/Info                              : Digital Theater Systems
Commercial name                          : DTS-HD Master Audio
Codec ID                                 : A_DTS
Duration                                 : 1 h 51 min
Bit rate mode                            : Variable
Bit rate                                 : 4 097 kb/s
Channel(s)                               : 6 channels
Channel layout                           : C L R Ls Rs LFE
Sampling rate                            : 48.0 kHz
Frame rate                               : 93.750 FPS (512 SPF)
Bit depth                                : 24 bits
Compression mode                         : Lossless
Stream size                              : 3.18 GiB (10%)
Title                                    : Coma.2019.RUSSIAN.1080p.BluRay.REMUX.AVC.DTS-HD.MA.5.1-FGT
Language                                 : English
Default                                  : No
Forced                                   : No
Original source medium                   : Blu-ray

Text #1
ID                                       : 4
Format                                   : UTF-8
Codec ID                                 : S_TEXT/UTF8
Codec ID/Info                            : UTF-8 Plain Text
Duration                                 : 1 h 42 min
Bit rate                                 : 40 b/s
Count of elements                        : 925
Stream size                              : 30.3 KiB (0%)
Title                                    : English-For-RUS-SRT
Language                                 : English
Default                                  : Yes
Forced                                   : No

Text #2
ID                                       : 5
Format                                   : UTF-8
Codec ID                                 : S_TEXT/UTF8
Codec ID/Info                            : UTF-8 Plain Text
Duration                                 : 1 h 42 min
Bit rate                                 : 49 b/s
Count of elements                        : 1034
Stream size                              : 36.6 KiB (0%)
Title                                    : English-For-EN-DUB-SRT
Language                                 : English
Default                                  : No
Forced                                   : No

Text #3
ID                                       : 6
ID in the original source medium         : 4608 (0x1200)
Format                                   : PGS
Muxing mode                              : zlib
Codec ID                                 : S_HDMV/PGS
Codec ID/Info                            : Picture based subtitle format used on BDs/HD-DVDs
Duration                                 : 1 h 49 min
Bit rate                                 : 30.8 kb/s
Count of elements                        : 2516
Stream size                              : 24.2 MiB (0%)
Title                                    : English-For-EN-DUB-PGS
Language                                 : English
Default                                  : No
Forced                                   : No
Original source medium                   : Blu-ray

Text #4
ID                                       : 7
ID in the original source medium         : 4609 (0x1201)
Format                                   : PGS
Muxing mode                              : zlib
Codec ID                                 : S_HDMV/PGS
Codec ID/Info                            : Picture based subtitle format used on BDs/HD-DVDs
Duration                                 : 1 h 42 min
Bit rate                                 : 24.3 kb/s
Count of elements                        : 1856
Stream size                              : 17.7 MiB (0%)
Title                                    : English-For-RUS-PGS
Language                                 : English
Default                                  : No
Forced                                   : No
Original source medium                   : Blu-ray

Menu
00:00:00.000                             : en:Chapter 01
00:12:53.189                             : en:Chapter 02
00:18:54.800                             : en:Chapter 03
00:27:47.040                             : en:Chapter 04
00:34:38.576                             : en:Chapter 05
00:44:32.002                             : en:Chapter 06
00:49:38.433                             : en:Chapter 07
00:57:45.795                             : en:Chapter 08
01:05:45.066                             : en:Chapter 09
01:13:19.436                             : en:Chapter 10
01:23:24.124                             : en:Chapter 11
01:29:22.648                             : en:Chapter 12
01:34:24.283                             : en:Chapter 13
01:40:15.718                             : en:Chapter 14
01:43:55.103                             : en:Chapter 15
01:47:06.503                             : en:Chapter 16
01:51:06.743                             : en:Chapter 17


悠悠MP4_MP4电影下载_异界 Coma.2019.RUSSIAN.1080p.BluRay.REMUX.AVC.DTS-HD.MA.5.1-FGT 33.07GB悠悠MP4_MP4电影下载_异界 Coma.2019.RUSSIAN.1080p.BluRay.REMUX.AVC.DTS-HD.MA.5.1-FGT 33.07GB悠悠MP4_MP4电影下载_异界 Coma.2019.RUSSIAN.1080p.BluRay.REMUX.AVC.DTS-HD.MA.5.1-FGT 33.07GB


提示:如迅雷下载提示"任务出错"、"因版权无法下载",请尝试【迅雷5】
上传的附件:
最新回复 (0)
返回
本站所有资源均收集自互联网,没有提供影片资源存储, 也未参与录制、上传,若本站收录的资源无意侵犯了您的权益, 请联系邮箱:gogoimgs#gmail.com(#=@)