[2019] [其他] [其他] [WEB-1080P] 红企鹅/红军无敌 Red.Penguins.2019.1080p.AMZN.WEBRip.DDP5.1.x264-NTG 5.32GB

uump4 1月前 212

帖子完整标题:红企鹅/红军无敌 Red.Penguins.2019.1080p.AMZN.WEBRip.DDP5.1.x264-NTG 5.32GB

悠悠MP4_MP4电影下载_红企鹅/红军无敌 Red.Penguins.2019.1080p.AMZN.WEBRip.DDP5.1.x264-NTG 5.32GB

◎译  名 红企鹅 / 红军无敌
◎片  名 Red Penguins
◎年  代 2019
◎产  地 德国 / 俄罗斯 / 美国
◎类  别 纪录片
◎语  言 英语 / 俄语
◎IMDb评分  6.7/10 from 23 users
◎IMDb链接  https://www.imdb.com/title/tt10779084
◎豆瓣评分 0/10 from 0 users
◎豆瓣链接 https://movie.douban.com/subject/34816960/
◎片  长 80分钟
◎导  演 加布·波斯基 Gabe Polsky
◎编  剧 加布·波斯基 Gabe Polsky
◎主  演 霍华德·鲍尔温 Howard Baldwin
       Viktor Tikhonov
       Steven Warshaw


◎标  签 纪录片 | TIFF19 | ScotiabankTheatre

◎简  介 悠悠MP4_MP4电影下载_红企鹅/红军无敌 Red.Penguins.2019.1080p.AMZN.WEBRip.DDP5.1.x264-NTG 5.32GB  

  (IMDB)Red Penguins tells a story of capitalism and opportunism run amok - complete with gangsters, strippers and live bears serving beer on a hockey rink in Moscow. Shortly after the collapse of the Soviet Union, the Pittsburgh Penguins and the famed Red Army hockey team formed a joint-venture that showed anything was possible in the new Russia. Eccentric marketing whiz, Steve Warshaw, is sent to Russia and tasked to transform team into the greatest show in Moscow. He takes the viewer on a bizarre journey highlighting a pivotal moment in U.S. Russian relations in a lawless era when oligarchs made their fortunes and multiple murders went unsolved.

Video
ID                                       : 1
Format                                   : AVC
Format/Info                              : Advanced Video Codec
Format profile                           : [email protected]
Format settings                          : CABAC / 4 Ref Frames
Format settings, CABAC                   : Yes
Format settings, Reference frames        : 4 frames
Codec ID                                 : V_MPEG4/ISO/AVC
Duration                                 : 1 h 19 min
Bit rate mode                            : Constant
Bit rate                                 : 8 874 kb/s
Nominal bit rate                         : 10 000 kb/s
Width                                    : 1 920 pixels
Height                                   : 1 040 pixels
Display aspect ratio                     : 1.85:1
Frame rate mode                          : Constant
Frame rate                               : 23.976 (24000/1001/189150) FPS
Color space                              : YUV
Chroma subsampling                       : 4:2:0
Bit depth                                : 8 bits
Scan type                                : Progressive
Bits/(Pixel*Frame)                       : 0.185
Stream size                              : 4.96 GiB (93%)
Default                                  : Yes
Forced                                   : No
Color range                              : Limited
Color primaries                          : BT.709
Transfer characteristics                 : BT.709
Matrix coefficients                      : BT.709

Audio
ID                                       : 2
Format                                   : E-AC-3
Format/Info                              : Enhanced AC-3
Commercial name                          : Dolby Digital Plus
Codec ID                                 : A_EAC3
Duration                                 : 1 h 19 min
Bit rate mode                            : Constant
Bit rate                                 : 640 kb/s
Channel(s)                               : 6 channels
Channel layout                           : L R C LFE Ls Rs
Sampling rate                            : 48.0 kHz
Frame rate                               : 31.250 FPS (1536 SPF)
Compression mode                         : Lossy
Stream size                              : 366 MiB (7%)
Language                                 : English
Service kind                             : Complete Main
Default                                  : Yes
Forced                                   : No

Text #1
ID                                       : 3
Format                                   : UTF-8
Codec ID                                 : S_TEXT/UTF8
Codec ID/Info                            : UTF-8 Plain Text
Duration                                 : 1 h 19 min
Bit rate                                 : 76 b/s
Count of elements                        : 1133
Stream size                              : 44.6 KiB (0%)
Language                                 : English
Default                                  : No
Forced                                   : No

Text #2
ID                                       : 4
Format                                   : UTF-8
Codec ID                                 : S_TEXT/UTF8
Codec ID/Info                            : UTF-8 Plain Text
Duration                                 : 1 h 19 min
Bit rate                                 : 82 b/s
Count of elements                        : 1278
Stream size                              : 48.0 KiB (0%)
Title                                    : SDH
Language                                 : English
Default                                  : No
Forced                                   : No


悠悠MP4_MP4电影下载_红企鹅/红军无敌 Red.Penguins.2019.1080p.AMZN.WEBRip.DDP5.1.x264-NTG 5.32GB悠悠MP4_MP4电影下载_红企鹅/红军无敌 Red.Penguins.2019.1080p.AMZN.WEBRip.DDP5.1.x264-NTG 5.32GB


提示:如迅雷下载提示"任务出错"、"因版权无法下载",请尝试【迅雷5】
上传的附件:
最新回复 (0)
返回
本站所有资源均收集自互联网,没有提供影片资源存储, 也未参与录制、上传,若本站收录的资源无意侵犯了您的权益, 请联系邮箱:gogoimgs#gmail.com(#=@)