[2019] [其他] [剧情] [WEB-1080P] 地狱边境 Limbo.2019.1080p.AMZN.WEBRip.DDP5.1.x264-NTG 3.59GB

uump4 1月前 212

帖子完整标题:地狱边境 Limbo.2019.1080p.AMZN.WEBRip.DDP5.1.x264-NTG 3.59GB

悠悠MP4_MP4电影下载_地狱边境 Limbo.2019.1080p.AMZN.WEBRip.DDP5.1.x264-NTG 3.59GB

◎译  名 地狱边境
◎片  名 Limbo
◎年  代 2019
◎产  地 美国 / 西班牙
◎类  别 剧情 / 喜剧 / 恐怖
◎语  言 英语 / 西班牙语
◎上映日期 2019-08-22(美国)
◎IMDb评分 4.9/10 from 263 users
◎IMDb链接 https://www.imdb.com/title/tt7935392
◎豆瓣评分 0/10 from 0 users
◎豆瓣链接 https://movie.douban.com/subject/30199640/
◎片  长 90分钟
◎导  演 马克·杨 Mark Young
◎编  剧 马克·杨 Mark Young
◎主  演 詹姆斯·鲍弗 James Purefoy
      斯考蒂·汤姆森 Scottie Thompson
      丽贝卡·肯尼迪 Rebekah Kennedy
      维罗尼卡·卡维特 Veronica Cartwright
      理查德·里尔 Richard Riehle
      查德·林德伯格 Chad Lindberg
      彼得·雅各布森 Peter Jacobson
      卢·坦普尔 Lew Temple
      曼德拉·范·皮布尔斯 Mandela Van Peebles
      安德鲁·埃尔维斯·米勒 Andrew Elvis Miller
      劳琳·坎尼 Lauryn Canny


◎标  签 喜剧 | 美国电影 | 美国 | 2019 | 西班牙 | 恐怖 | 复古风 | 詹姆斯·鲍弗

◎简  介 悠悠MP4_MP4电影下载_地狱边境 Limbo.2019.1080p.AMZN.WEBRip.DDP5.1.x264-NTG 3.59GB

  A murderer finds himself on trial in Hell, caught between a bitter prosecutor and an inexperienced defense attorney.

Video
ID : 1
Format : AVC
Format/Info : Advanced Video Codec
Format profile : [email protected]
Format settings : CABAC / 4 Ref Frames
Format settings, CABAC : Yes
Format settings, Reference frames : 4 frames
Codec ID : V_MPEG4/ISO/AVC
Duration : 1 h 29 min
Bit rate mode : Constant
Bit rate : 5 113 kb/s
Nominal bit rate : 10 000 kb/s
Width : 1 920 pixels
Height : 816 pixels
Display aspect ratio : 2.35:1
Frame rate mode : Constant
Frame rate : 23.976 (24000/1001/189150) FPS
Color space : YUV
Chroma subsampling : 4:2:0
Bit depth : 8 bits
Scan type : Progressive
Bits/(Pixel*Frame) : 0.136
Stream size : 3.19 GiB (89%)
Default : Yes
Forced : No
Color range : Limited
Color primaries : BT.709
Transfer characteristics : BT.709
Matrix coefficients : BT.709

Audio
ID : 2
Format : E-AC-3
Format/Info : Enhanced AC-3
Commercial name : Dolby Digital Plus
Codec ID : A_EAC3
Duration : 1 h 29 min
Bit rate mode : Constant
Bit rate : 640 kb/s
Channel(s) : 6 channels
Channel layout : L R C LFE Ls Rs
Sampling rate : 48.0 kHz
Frame rate : 31.250 FPS (1536 SPF)
Compression mode : Lossy
Stream size : 409 MiB (11%)
Language : English
Service kind : Complete Main
Default : Yes
Forced : No

Text #1
ID : 3
Format : UTF-8
Codec ID : S_TEXT/UTF8
Codec ID/Info : UTF-8 Plain Text
Duration : 1 h 28 min
Bit rate : 59 b/s
Count of elements : 1373
Stream size : 38.4 KiB (0%)
Language : English
Default : No
Forced : No

Text #2
ID : 4
Format : UTF-8
Codec ID : S_TEXT/UTF8
Codec ID/Info : UTF-8 Plain Text
Duration : 1 h 29 min
Bit rate : 64 b/s
Count of elements : 1523
Stream size : 42.2 KiB (0%)
Title : SDH
Language : English
Default : No
Forced : No

悠悠MP4_MP4电影下载_地狱边境 Limbo.2019.1080p.AMZN.WEBRip.DDP5.1.x264-NTG 3.59GB悠悠MP4_MP4电影下载_地狱边境 Limbo.2019.1080p.AMZN.WEBRip.DDP5.1.x264-NTG 3.59GB悠悠MP4_MP4电影下载_地狱边境 Limbo.2019.1080p.AMZN.WEBRip.DDP5.1.x264-NTG 3.59GB


提示:如迅雷下载提示"任务出错"、"因版权无法下载",请尝试【迅雷5】
上传的附件:
最新回复 (0)
返回
本站所有资源均收集自互联网,没有提供影片资源存储, 也未参与录制、上传,若本站收录的资源无意侵犯了您的权益, 请联系邮箱:gogoimgs#gmail.com(#=@)