[更早] [其他] [惊悚] [WEB-720P] 阴暗家族/愈合 皮肤沃克 Skin.Walker.2019.720p.AMZN.WEBRip.DDP5.1.x264-NTG 1.68GB

uump4 1月前 189

帖子完整标题:阴暗家族/愈合 皮肤沃克 Skin.Walker.2019.720p.AMZN.WEBRip.DDP5.1.x264-NTG 1.68GB

悠悠MP4_MP4电影下载_阴暗家族/愈合 皮肤沃克 Skin.Walker.2019.720p.AMZN.WEBRip.DDP5.1.x264-NTG 1.68GB

◎译  名 阴暗家族 / 愈合 皮肤沃克
◎片  名 Skin Walker
◎年  代 2020
◎产  地 卢森堡 Luxembourg/比利时
◎类  别 惊悚
◎语  言 英语
◎上映日期 2020-03-05(卢森堡)
◎IMDb评分  6.9/10 from 19 users
◎IMDb链接  https://www.imdb.com/title/tt8348022
◎豆瓣评分 0/10 from 0 users
◎豆瓣链接 https://movie.douban.com/subject/34883912/
◎导  演 Christian Neuman
◎编  剧 Christian Neuman
◎主  演 乌多·基尔 Udo Kier
       杰佛逊·豪尔 Jefferson Hall
       安珀·安德森 Amber Anderson


◎简  介 悠悠MP4_MP4电影下载_阴暗家族/愈合 皮肤沃克 Skin.Walker.2019.720p.AMZN.WEBRip.DDP5.1.x264-NTG 1.68GB  

  Regine, a psychologically fragile young woman, is hiding away in the city, far from the dark and forbidding countryside of her traumatic childhood. She's struggling to construct the loving family she never had, and to rise above the events of the past: above all, the disastrous home birth of her brother Isaac, which led to her mother's insanity and Isaac's apparent death. But the city is tense and hostile, and contains its own threats. An abusive relationship with the controlling psychiatrist who's treating her mother is already blighting Regine's life when the brutal murder of her grandmother raises a crucial question: is Isaac still alive, and looking for revenge against a family which he feels has rejected him? Driven to heal the wounds of the past and to reunite her family by connecting with the brother she's never met, Regine must return to the site of her previous traumas and confront the true source of her family's guilt. It could make sense of her life - or throw it into ...

Video
ID                                       : 1
Format                                   : AVC
Format/Info                              : Advanced Video Codec
Format profile                           : [email protected]
Format settings                          : CABAC / 4 Ref Frames
Format settings, CABAC                   : Yes
Format settings, Reference frames        : 4 frames
Codec ID                                 : V_MPEG4/ISO/AVC
Duration                                 : 1 h 27 min
Bit rate mode                            : Constant
Bit rate                                 : 2 109 kb/s
Nominal bit rate                         : 6 000 kb/s
Width                                    : 1 280 pixels
Height                                   : 544 pixels
Display aspect ratio                     : 2.35:1
Original display aspect ratio            : 2.35:1
Frame rate mode                          : Constant
Frame rate                               : 23.976 (24000/1001/189150) FPS
Color space                              : YUV
Chroma subsampling                       : 4:2:0
Bit depth                                : 8 bits
Scan type                                : Progressive
Bits/(Pixel*Frame)                       : 0.126
Stream size                              : 1.28 GiB (77%)
Default                                  : Yes
Forced                                   : No
Color range                              : Limited
Color primaries                          : BT.709
Transfer characteristics                 : BT.709
Matrix coefficients                      : BT.709

Audio
ID                                       : 2
Format                                   : E-AC-3
Format/Info                              : Enhanced AC-3
Commercial name                          : Dolby Digital Plus
Codec ID                                 : A_EAC3
Duration                                 : 1 h 27 min
Bit rate mode                            : Constant
Bit rate                                 : 640 kb/s
Channel(s)                               : 6 channels
Channel layout                           : L R C LFE Ls Rs
Sampling rate                            : 48.0 kHz
Frame rate                               : 31.250 FPS (1536 SPF)
Compression mode                         : Lossy
Stream size                              : 399 MiB (23%)
Language                                 : English
Service kind                             : Complete Main
Default                                  : Yes
Forced                                   : No

Text #1
ID                                       : 3
Format                                   : UTF-8
Codec ID                                 : S_TEXT/UTF8
Codec ID/Info                            : UTF-8 Plain Text
Duration                                 : 1 h 19 min
Bit rate                                 : 23 b/s
Count of elements                        : 570
Stream size                              : 13.8 KiB (0%)
Language                                 : English
Default                                  : No
Forced                                   : No

Text #2
ID                                       : 4
Format                                   : UTF-8
Codec ID                                 : S_TEXT/UTF8
Codec ID/Info                            : UTF-8 Plain Text
Duration                                 : 1 h 21 min
Bit rate                                 : 30 b/s
Count of elements                        : 841
Stream size                              : 18.5 KiB (0%)
Title                                    : SDH
Language                                 : English
Default                                  : No
Forced                                   : No


悠悠MP4_MP4电影下载_阴暗家族/愈合 皮肤沃克 Skin.Walker.2019.720p.AMZN.WEBRip.DDP5.1.x264-NTG 1.68GB悠悠MP4_MP4电影下载_阴暗家族/愈合 皮肤沃克 Skin.Walker.2019.720p.AMZN.WEBRip.DDP5.1.x264-NTG 1.68GB悠悠MP4_MP4电影下载_阴暗家族/愈合 皮肤沃克 Skin.Walker.2019.720p.AMZN.WEBRip.DDP5.1.x264-NTG 1.68GB


提示:如迅雷下载提示"任务出错"、"因版权无法下载",请尝试【迅雷5】
上传的附件:
最新回复 (0)
返回
本站所有资源均收集自互联网,没有提供影片资源存储, 也未参与录制、上传,若本站收录的资源无意侵犯了您的权益, 请联系邮箱:gogoimgs#gmail.com(#=@)