[2008] [其他] [剧情] [WEB-1080P] 强尼不是我 My.Name.Aint.Johnny.2008.PORTUGUESE.1080p.AMZN.WEBRip.DDP2.0.x264-alfaHD 8

uump4 12天前 89

帖子完整标题:强尼不是我 My.Name.Aint.Johnny.2008.PORTUGUESE.1080p.AMZN.WEBRip.DDP2.0.x264-alfaHD 8.48GB

悠悠MP4_MP4电影下载_强尼不是我 My.Name.Aint.Johnny.2008.PORTUGUESE.1080p.AMZN.WEBRip.DDP2.0.x264-alfaHD 8

◎译  名 强尼不是我 / Meu Nome N?o é Johnny
◎片  名 My name isn't Johnny
◎年  代 2008
◎产  地 巴西
◎类  别 剧情 / 犯罪
◎语  言 葡萄牙语
◎上映日期 2008
◎IMDb评分  7.2/10 from 6379 users
◎IMDb链接  https://www.imdb.com/title/tt1092016
◎豆瓣评分 0/10 from 0 users
◎豆瓣链接 https://movie.douban.com/subject/4257214/
◎片  长 124 分钟
◎导  演 Mauro Lima
◎主  演 赛尔顿·梅罗 Selton Mello
       Cléo Pires
       Giulio Lopes


◎标  签 巴西 | 青春 | 迅雷离线 | 国家_巴西

◎简  介 悠悠MP4_MP4电影下载_强尼不是我 My.Name.Aint.Johnny.2008.PORTUGUESE.1080p.AMZN.WEBRip.DDP2.0.x264-alfaHD 8  

  这是一个根据Jo?o Guilherme Estrella ("强尼")的真实故事而改编的电影,讲述1990年初,一个中产阶级的小康分子强尼突然一时兴起跟毒枭Rio de Janeiro做起了可卡因生意.

Video
ID                                       : 1
Format                                   : AVC
Format/Info                              : Advanced Video Codec
Format profile                           : [email protected]
Format settings                          : CABAC / 4 Ref Frames
Format settings, CABAC                   : Yes
Format settings, Reference frames        : 4 frames
Codec ID                                 : V_MPEG4/ISO/AVC
Duration                                 : 2 h 5 min
Bit rate mode                            : Constant
Bit rate                                 : 9 478 kb/s
Nominal bit rate                         : 10 000 kb/s
Width                                    : 1 920 pixels
Height                                   : 1 080 pixels
Display aspect ratio                     : 16:9
Frame rate mode                          : Constant
Frame rate                               : 23.976 (24000/1001/189150) FPS
Color space                              : YUV
Chroma subsampling                       : 4:2:0
Bit depth                                : 8 bits
Scan type                                : Progressive
Bits/(Pixel*Frame)                       : 0.191
Stream size                              : 8.28 GiB (98%)
Default                                  : Yes
Forced                                   : No
Color range                              : Limited
Color primaries                          : BT.709
Transfer characteristics                 : BT.709
Matrix coefficients                      : BT.709

Audio
ID                                       : 2
Format                                   : E-AC-3
Format/Info                              : Enhanced AC-3
Commercial name                          : Dolby Digital Plus
Codec ID                                 : A_EAC3
Duration                                 : 2 h 5 min
Bit rate mode                            : Constant
Bit rate                                 : 224 kb/s
Channel(s)                               : 2 channels
Channel layout                           : L R
Sampling rate                            : 48.0 kHz
Frame rate                               : 31.250 FPS (1536 SPF)
Compression mode                         : Lossy
Stream size                              : 200 MiB (2%)
Language                                 : Portuguese
Service kind                             : Complete Main
Default                                  : Yes
Forced                                   : No

Text #1
ID                                       : 3
Format                                   : UTF-8
Codec ID                                 : S_TEXT/UTF8
Codec ID/Info                            : UTF-8 Plain Text
Duration                                 : 2 h 3 min
Bit rate                                 : 56 b/s
Count of elements                        : 1422
Stream size                              : 51.0 KiB (0%)
Language                                 : English
Default                                  : No
Forced                                   : No

Text #2
ID                                       : 4
Format                                   : UTF-8
Codec ID                                 : S_TEXT/UTF8
Codec ID/Info                            : UTF-8 Plain Text
Duration                                 : 2 h 3 min
Bit rate                                 : 60 b/s
Count of elements                        : 1473
Stream size                              : 54.8 KiB (0%)
Language                                 : Spanish
Default                                  : No
Forced                                   : No


悠悠MP4_MP4电影下载_强尼不是我 My.Name.Aint.Johnny.2008.PORTUGUESE.1080p.AMZN.WEBRip.DDP2.0.x264-alfaHD 8悠悠MP4_MP4电影下载_强尼不是我 My.Name.Aint.Johnny.2008.PORTUGUESE.1080p.AMZN.WEBRip.DDP2.0.x264-alfaHD 8悠悠MP4_MP4电影下载_强尼不是我 My.Name.Aint.Johnny.2008.PORTUGUESE.1080p.AMZN.WEBRip.DDP2.0.x264-alfaHD 8


提示:如迅雷下载提示"任务出错"、"因版权无法下载",请尝试【迅雷5】
上传的附件:
最新回复 (0)
返回
本站所有资源均收集自互联网,没有提供影片资源存储, 也未参与录制、上传,若本站收录的资源无意侵犯了您的权益, 请联系邮箱:gogoimgs#gmail.com(#=@)