[更早] [其他] [科幻] [BD-720P] 异界 Coma.2019.720p.BluRay.x264-YOL0W 5.67GB

uump4 9天前 83

帖子完整标题:异界 Coma.2019.720p.BluRay.x264-YOL0W 5.67GB

悠悠MP4_MP4电影下载_异界 Coma.2019.720p.BluRay.x264-YOL0W 5.67GB

◎译  名 异界 / Koma / The Coma / 昏迷
◎片  名 Кома
◎年  代 2020
◎产  地 俄罗斯
◎类  别 科幻
◎语  言 俄语
◎上映日期 2020-01-30(俄罗斯)
◎IMDb评分  6.5/10 from 2299 users
◎IMDb链接  https://www.imdb.com/title/tt6087226
◎豆瓣评分 6.3/10 from 14338 users
◎豆瓣链接 https://movie.douban.com/subject/30264504/
◎片  长 111分钟
◎导  演 尼基塔·阿格诺夫 Nikita Argunov
◎编  剧 尼基塔·阿格诺夫 Nikita Argunov / 提莫非·邓肯 Timofei Dekin / 阿莱克西·克莱福科维奇 Aleksey Gravitskiy
◎主  演 林奈·穆罕默托夫 Rinal Mukhametov
       柳波芙·阿克肖诺娃 Lyubov Aksyonova
       安东·庞布施尼 Anton Pampushnyy
       米洛斯·比柯维奇 Milos Bikovic
       康斯坦丁·拉夫罗年科 Konstantin Lavronenko
       阿列克谢·谢列布里亚科夫 Aleksey Serebryakov
       维伦·巴比切夫 Vilen Babichev
       Polina Kuzminskaya


◎标  签 科幻 | 俄罗斯 | 科幻片 | 科幻奇幻 | 俄罗斯电影 | 悬疑 | 惊悚 | 2019

◎简  介 悠悠MP4_MP4电影下载_异界 Coma.2019.720p.BluRay.x264-YOL0W 5.67GB  

  在一场巨大而神秘的事故之后,一位年轻有才华的建筑师在一个与现实世界相似的奇异世界里苏醒,这个世界建立在这里人民的记忆之上,而这些人则处于深度昏迷之中。由于这些人的记忆力参差不齐、混乱、不稳定,导致奇怪的记忆和回忆——城市、冰川、河流可以共存在一个房间里,所有的物理定律都可以被打破,建筑师必须找到他们昏迷的具体规律,才能找到通往现实世界的出口。就在他与命运抗争的同时遇到了真爱,而经历此次昏迷之后,他发现自己不得不重新认识这个世界……

Video
ID                                       : 1
Format                                   : AVC
Format/Info                              : Advanced Video Codec
Format profile                           : [email protected]
Format settings                          : CABAC / 8 Ref Frames
Format settings, CABAC                   : Yes
Format settings, Reference frames        : 8 frames
Codec ID                                 : V_MPEG4/ISO/AVC
Duration                                 : 1 h 51 min
Bit rate                                 : 5 987 kb/s
Width                                    : 1 280 pixels
Height                                   : 536 pixels
Display aspect ratio                     : 2.40:1
Frame rate mode                          : Constant
Frame rate                               : 23.976 (24000/1001/189150) FPS
Color space                              : YUV
Chroma subsampling                       : 4:2:0
Bit depth                                : 8 bits
Scan type                                : Progressive
Bits/(Pixel*Frame)                       : 0.364
Stream size                              : 4.65 GiB (82%)
Writing library                          : x264 core 161 r3018 db0d417
Encoding settings                        : cabac=1 / ref=8 / deblock=1:-3:-3 / analyse=0x3:0x133 / me=umh / subme=9 / psy=1 / psy_rd=1.00:0.00 / mixed_ref=1 / me_range=32 / chroma_me=1 / trellis=2 / 8x8dct=1 / cqm=0 / deadzone=21,11 / fast_pskip=0 / chroma_qp_offset=-2 / threads=48 / lookahead_threads=4 / sliced_threads=0 / nr=0 / decimate=0 / interlaced=0 / bluray_compat=0 / constrained_intra=0 / bframes=9 / b_pyramid=2 / b_adapt=2 / b_bias=0 / direct=3 / weightb=1 / open_gop=0 / weightp=2 / keyint=250 / keyint_min=23 / scenecut=40 / intra_refresh=0 / rc=crf / mbtree=0 / crf=17.0 / qcomp=0.60 / qpmin=0 / qpmax=69 / qpstep=4 / ip_ratio=1.40 / pb_ratio=1.30 / aq=3:0.88
Default                                  : Yes
Forced                                   : No
Color range                              : Limited
Matrix coefficients                      : BT.709

Audio #1
ID                                       : 2
Format                                   : AC-3
Format/Info                              : Audio Coding 3
Commercial name                          : Dolby Digital
Codec ID                                 : A_AC3
Duration                                 : 1 h 51 min
Bit rate mode                            : Constant
Bit rate                                 : 640 kb/s
Channel(s)                               : 6 channels
Channel layout                           : L R C LFE Ls Rs
Sampling rate                            : 48.0 kHz
Frame rate                               : 31.250 FPS (1536 SPF)
Bit depth                                : 16 bits
Compression mode                         : Lossy
Stream size                              : 509 MiB (9%)
Title                                    : Russian
Language                                 : Russian
Service kind                             : Complete Main
Default                                  : No
Forced                                   : No

Audio #2
ID                                       : 3
Format                                   : AC-3
Format/Info                              : Audio Coding 3
Commercial name                          : Dolby Digital
Codec ID                                 : A_AC3
Duration                                 : 1 h 51 min
Bit rate mode                            : Constant
Bit rate                                 : 640 kb/s
Channel(s)                               : 6 channels
Channel layout                           : L R C LFE Ls Rs
Sampling rate                            : 48.0 kHz
Frame rate                               : 31.250 FPS (1536 SPF)
Bit depth                                : 16 bits
Compression mode                         : Lossy
Stream size                              : 509 MiB (9%)
Title                                    : English
Language                                 : English
Service kind                             : Complete Main
Default                                  : No
Forced                                   : No

Text #1
ID                                       : 4
Format                                   : UTF-8
Codec ID                                 : S_TEXT/UTF8
Codec ID/Info                            : UTF-8 Plain Text
Duration                                 : 1 h 42 min
Bit rate                                 : 40 b/s
Count of elements                        : 928
Stream size                              : 30.6 KiB (0%)
Title                                    : English forced for Russian audio
Language                                 : English
Default                                  : Yes
Forced                                   : Yes

Text #2
ID                                       : 5
Format                                   : PGS
Muxing mode                              : zlib
Codec ID                                 : S_HDMV/PGS
Codec ID/Info                            : Picture based subtitle format used on BDs/HD-DVDs
Duration                                 : 1 h 42 min
Bit rate                                 : 24.3 kb/s
Count of elements                        : 1856
Stream size                              : 17.7 MiB (0%)
Title                                    : English forced for Russian audio
Language                                 : English
Default                                  : No
Forced                                   : No

Text #3
ID                                       : 6
Format                                   : PGS
Muxing mode                              : zlib
Codec ID                                 : S_HDMV/PGS
Codec ID/Info                            : Picture based subtitle format used on BDs/HD-DVDs
Duration                                 : 1 h 49 min
Bit rate                                 : 30.8 kb/s
Count of elements                        : 2516
Stream size                              : 24.2 MiB (0%)
Title                                    : English SDH
Language                                 : English
Default                                  : No
Forced                                   : No

Menu
00:00:00.000                             : en:Chapter 01
00:12:53.189                             : en:Chapter 02
00:18:54.800                             : en:Chapter 03
00:27:47.040                             : en:Chapter 04
00:34:38.618                             : en:Chapter 05
00:44:32.044                             : en:Chapter 06
00:49:38.475                             : en:Chapter 07
00:57:45.837                             : en:Chapter 08
01:05:45.108                             : en:Chapter 09
01:13:19.478                             : en:Chapter 10
01:23:24.166                             : en:Chapter 11
01:29:22.691                             : en:Chapter 12
01:34:24.325                             : en:Chapter 13
01:40:15.760                             : en:Chapter 14
01:43:55.187                             : en:Chapter 15
01:47:06.462                             : en:Chapter 16


悠悠MP4_MP4电影下载_异界 Coma.2019.720p.BluRay.x264-YOL0W 5.67GB


提示:如迅雷下载提示"任务出错"、"因版权无法下载",请尝试【迅雷5】
上传的附件:
最新回复 (0)
返回
本站所有资源均收集自互联网,没有提供影片资源存储, 也未参与录制、上传,若本站收录的资源无意侵犯了您的权益, 请联系邮箱:gogoimgs#gmail.com(#=@)