[更早] [欧美] [剧情] [WEB-1080P] 枕边杀机/桃色惊魂 Sketch.Artist.1992.1080p.AMZN.WEBRip.DDP2.0.x264-alfaHD 6.22GB

uump4 3天前 126

帖子完整标题:枕边杀机/桃色惊魂 Sketch.Artist.1992.1080p.AMZN.WEBRip.DDP2.0.x264-alfaHD 6.22GB

悠悠MP4_MP4电影下载_枕边杀机/桃色惊魂 Sketch.Artist.1992.1080p.AMZN.WEBRip.DDP2.0.x264-alfaHD 6.22GB

◎译  名 枕边杀机 / 桃色惊魂
◎片  名 Sketch Artist
◎年  代 1992
◎产  地 美国
◎类  别 剧情 / 悬疑 / 犯罪
◎语  言 英语
◎上映日期 1992-06-27
◎IMDb评分  5.1/10 from 1064 users
◎IMDb链接  https://www.imdb.com/title/tt0105420
◎豆瓣评分 0/10 from 0 users
◎豆瓣链接 https://movie.douban.com/subject/1301627/
◎片  长 88分钟
◎导  演 芬顿·帕帕迈可 Phedon Papamichael
◎编  剧 Michael Angeli
◎主  演 杰夫·法赫 Jeff Fahey
       肖恩·杨 Sean Young
       德鲁·巴里摩尔 Drew Barrymore


◎标  签 肖恩·杨 | 未下载 | 悬疑 | 剧情 | 惊悚 | 德鲁·巴里摩尔

◎简  介 悠悠MP4_MP4电影下载_枕边杀机/桃色惊魂 Sketch.Artist.1992.1080p.AMZN.WEBRip.DDP2.0.x264-alfaHD 6.22GB  

  暂无相关剧情介绍

Video
ID                                       : 1
Format                                   : AVC
Format/Info                              : Advanced Video Codec
Format profile                           : [email protected]
Format settings                          : CABAC / 4 Ref Frames
Format settings, CABAC                   : Yes
Format settings, Reference frames        : 4 frames
Codec ID                                 : V_MPEG4/ISO/AVC
Duration                                 : 1 h 29 min
Bit rate mode                            : Constant
Bit rate                                 : 10 000 kb/s
Width                                    : 1 920 pixels
Height                                   : 1 080 pixels
Display aspect ratio                     : 16:9
Frame rate mode                          : Constant
Frame rate                               : 23.976 (24000/1001/189150) FPS
Color space                              : YUV
Chroma subsampling                       : 4:2:0
Bit depth                                : 8 bits
Scan type                                : Progressive
Bits/(Pixel*Frame)                       : 0.201
Stream size                              : 6.08 GiB (98%)
Default                                  : Yes
Forced                                   : No
Color range                              : Limited
Color primaries                          : BT.709
Transfer characteristics                 : BT.709
Matrix coefficients                      : BT.709

Audio
ID                                       : 2
Format                                   : E-AC-3
Format/Info                              : Enhanced AC-3
Commercial name                          : Dolby Digital Plus
Codec ID                                 : A_EAC3
Duration                                 : 1 h 29 min
Bit rate mode                            : Constant
Bit rate                                 : 224 kb/s
Channel(s)                               : 2 channels
Channel layout                           : L R
Sampling rate                            : 48.0 kHz
Frame rate                               : 31.250 FPS (1536 SPF)
Compression mode                         : Lossy
Stream size                              : 143 MiB (2%)
Language                                 : English
Service kind                             : Complete Main
Default                                  : Yes
Forced                                   : No

Text #1
ID                                       : 3
Format                                   : UTF-8
Codec ID                                 : S_TEXT/UTF8
Codec ID/Info                            : UTF-8 Plain Text
Duration                                 : 1 h 23 min
Bit rate                                 : 55 b/s
Count of elements                        : 1169
Stream size                              : 33.9 KiB (0%)
Language                                 : English
Default                                  : No
Forced                                   : No

Text #2
ID                                       : 4
Format                                   : UTF-8
Codec ID                                 : S_TEXT/UTF8
Codec ID/Info                            : UTF-8 Plain Text
Duration                                 : 1 h 24 min
Bit rate                                 : 60 b/s
Count of elements                        : 1321
Stream size                              : 37.8 KiB (0%)
Title                                    : SDH
Language                                 : English
Default                                  : No
Forced                                   : No


悠悠MP4_MP4电影下载_枕边杀机/桃色惊魂 Sketch.Artist.1992.1080p.AMZN.WEBRip.DDP2.0.x264-alfaHD 6.22GB悠悠MP4_MP4电影下载_枕边杀机/桃色惊魂 Sketch.Artist.1992.1080p.AMZN.WEBRip.DDP2.0.x264-alfaHD 6.22GB


提示:如迅雷下载提示"任务出错"、"因版权无法下载",请尝试【迅雷5】
上传的附件:
最新回复 (0)
返回
本站所有资源均收集自互联网,没有提供影片资源存储, 也未参与录制、上传,若本站收录的资源无意侵犯了您的权益, 请联系邮箱:gogoimgs#gmail.com(#=@)