[2019] [其他] [剧情] [WEB-1080P] 妈妈不在家 The.Wolves.2019.SPANISH.1080p.HMAX.WEBRip.DD2.0.x264-alfaHD 5.72GB

uump4 3天前 86

帖子完整标题:妈妈不在家 The.Wolves.2019.SPANISH.1080p.HMAX.WEBRip.DD2.0.x264-alfaHD 5.72GB

悠悠MP4_MP4电影下载_妈妈不在家 The.Wolves.2019.SPANISH.1080p.HMAX.WEBRip.DD2.0.x264-alfaHD 5.72GB

◎译  名 妈妈不在家 / The Wolves / 饿狼来了
◎片  名 Los Lobos
◎年  代 2019
◎产  地 墨西哥 / 美国
◎类  别 剧情 / 儿童
◎语  言 西班牙语 / 英语 / 粤语
◎上映日期 2019-10-09(釜山电影节)
◎IMDb评分  6.7/10 from 164 users
◎IMDb链接  https://www.imdb.com/title/tt9057808
◎豆瓣评分 7.1/10 from 93 users
◎豆瓣链接 https://movie.douban.com/subject/34816915/
◎片  长 94分钟
◎导  演 Samuel KISHI LEOPO
◎编  剧 Samuel KISHI LEOPO / Luis Briones / Sofía Gómez-Córdova
◎主  演 玛莎·雷耶斯·阿里娅斯 Martha Reyes Arias
       马克西米利亚诺·纳贾·马奎兹 Maximiliano Nájar Márquez
       莱昂纳多·纳贾·马奎兹 Leonardo Nájar Márquez
       刘慈慈 Cici Lau
       Johnson T. Lau
       Kevin Medina
       Josiah Grado
       Marvin Ramírez
       Alejandro Banteah
       Edwin Ramírez
       Aylin Payen
       Shacty Díaz
       María Teresa Herrera
       Amy Puente
       Celine R. Lopez


◎标  签 墨西哥 | 2019 | 儿童 | 剧情 | 移民群体 | P-BerlinF新生代单元 | HIIFF | 墨西哥风暴

◎简  介 悠悠MP4_MP4电影下载_妈妈不在家 The.Wolves.2019.SPANISH.1080p.HMAX.WEBRip.DD2.0.x264-alfaHD 5.72GB  

  马克斯和里奥跟随母亲露西亚从家乡墨西哥移居到美国。她说他们会过上更好的生活,她还答应带他们去梦寐以求的迪斯尼乐园。现实的情况却是,孩子们每天被关在一个破旧狭小的房间里涂鸦,等待精疲力尽的妈妈下班归来。导演根据自身经历改编,描绘了一幅疏离而忧伤的童年画卷,以敏感而审慎的态度,勾勒出多元化社会及移民问题的痛点。

◎获奖情况  

  第2届海南岛国际电影节(2019)
  金椰奖 最佳影片奖(提名)

Video
ID                                       : 1
Format                                   : AVC
Format/Info                              : Advanced Video Codec
Format profile                           : [email protected]
Format settings                          : CABAC / 4 Ref Frames
Format settings, CABAC                   : Yes
Format settings, Reference frames        : 4 frames
Format settings, GOP                     : M=4, N=48
Codec ID                                 : V_MPEG4/ISO/AVC
Duration                                 : 1 h 35 min
Bit rate mode                            : Variable
Bit rate                                 : 8 217 kb/s
Maximum bit rate                         : 12.4 Mb/s
Width                                    : 1 920 pixels
Height                                   : 1 080 pixels
Display aspect ratio                     : 16:9
Frame rate mode                          : Constant
Frame rate                               : 23.976 (24000/1001/189150) FPS
Color space                              : YUV
Chroma subsampling                       : 4:2:0
Bit depth                                : 8 bits
Scan type                                : Progressive
Bits/(Pixel*Frame)                       : 0.165
Stream size                              : 5.46 GiB (96%)
Default                                  : Yes
Forced                                   : No

Audio
ID                                       : 2
Format                                   : AC-3
Format/Info                              : Audio Coding 3
Commercial name                          : Dolby Digital
Codec ID                                 : A_AC3
Duration                                 : 1 h 35 min
Bit rate mode                            : Constant
Bit rate                                 : 384 kb/s
Channel(s)                               : 2 channels
Channel layout                           : L R
Sampling rate                            : 48.0 kHz
Frame rate                               : 31.250 FPS (1536 SPF)
Bit depth                                : 16 bits
Compression mode                         : Lossy
Stream size                              : 261 MiB (4%)
Language                                 : Spanish
Service kind                             : Complete Main
Default                                  : Yes
Forced                                   : No

Text #1
ID                                       : 3
Format                                   : UTF-8
Codec ID                                 : S_TEXT/UTF8
Codec ID/Info                            : UTF-8 Plain Text
Duration                                 : 1 h 30 min
Bit rate                                 : 27 b/s
Count of elements                        : 778
Stream size                              : 18.2 KiB (0%)
Title                                    : Espa?ol
Language                                 : Spanish
Default                                  : No
Forced                                   : No

Text #2
ID                                       : 4
Format                                   : UTF-8
Codec ID                                 : S_TEXT/UTF8
Codec ID/Info                            : UTF-8 Plain Text
Duration                                 : 1 h 29 min
Bit rate                                 : 18 b/s
Count of elements                        : 508
Stream size                              : 12.5 KiB (0%)
Language                                 : English
Default                                  : Yes
Forced                                   : No


悠悠MP4_MP4电影下载_妈妈不在家 The.Wolves.2019.SPANISH.1080p.HMAX.WEBRip.DD2.0.x264-alfaHD 5.72GB悠悠MP4_MP4电影下载_妈妈不在家 The.Wolves.2019.SPANISH.1080p.HMAX.WEBRip.DD2.0.x264-alfaHD 5.72GB悠悠MP4_MP4电影下载_妈妈不在家 The.Wolves.2019.SPANISH.1080p.HMAX.WEBRip.DD2.0.x264-alfaHD 5.72GB


提示:如迅雷下载提示"任务出错"、"因版权无法下载",请尝试【迅雷5】
上传的附件:
最新回复 (0)
返回
本站所有资源均收集自互联网,没有提供影片资源存储, 也未参与录制、上传,若本站收录的资源无意侵犯了您的权益, 请联系邮箱:gogoimgs#gmail.com(#=@)