[更早] [其他] [喜剧] [WEB-1080P] 欢迎来到伍普 Welcome.To.Woop.Woop.1997.1080p.WEBRip.AAC2.0.x264-PlayWEB 4.23GB

uump4 3天前 44

帖子完整标题:欢迎来到伍普 Welcome.To.Woop.Woop.1997.1080p.WEBRip.AAC2.0.x264-PlayWEB 4.23GB

悠悠MP4_MP4电影下载_欢迎来到伍普 Welcome.To.Woop.Woop.1997.1080p.WEBRip.AAC2.0.x264-PlayWEB 4.23GB

◎译  名 欢迎来到伍普
◎片  名 Welcome to Woop Woop
◎年  代 1997
◎产  地 澳大利亚 / 英国
◎类  别 喜剧
◎语  言 英语
◎上映日期 1998
◎IMDb评分  5.7/10 from 1779 users
◎IMDb链接  https://www.imdb.com/title/tt0120491
◎豆瓣评分 0/10 from 0 users
◎豆瓣链接 https://movie.douban.com/subject/4822537/
◎片  长 Argentina: 97 分钟
◎导  演 Stephan Elliott
◎编  剧 Michael Thomas
◎主  演 Johnathon Schaech
       Rod Taylor
       Susie Porter


◎标  签 澳大利亚电影 | 澳大利亚 | 喜剧 | D斯蒂芬·埃利奥特 | 我的添加 | P-CannesE特别展映 | M澳大利亚

◎简  介 悠悠MP4_MP4电影下载_欢迎来到伍普 Welcome.To.Woop.Woop.1997.1080p.WEBRip.AAC2.0.x264-PlayWEB 4.23GB  

  A con artist escapes a deal gone wrong in New York and winds up in the Aussie outback in a strange town whose inhabitants are an oddball collection of misfits.

Video
ID                                       : 1
Format                                   : AVC
Format/Info                              : Advanced Video Codec
Format profile                           : [email protected]
Format settings                          : CABAC / 4 Ref Frames
Format settings, CABAC                   : Yes
Format settings, Reference frames        : 4 frames
Codec ID                                 : V_MPEG4/ISO/AVC
Duration                                 : 1 h 37 min
Bit rate                                 : 6 117 kb/s
Width                                    : 1 920 pixels
Height                                   : 1 080 pixels
Display aspect ratio                     : 16:9
Frame rate mode                          : Constant
Frame rate                               : 23.976 (24000/1001/189150) FPS
Color space                              : YUV
Chroma subsampling                       : 4:2:0
Bit depth                                : 8 bits
Scan type                                : Progressive
Bits/(Pixel*Frame)                       : 0.123
Stream size                              : 4.15 GiB (98%)
Writing library                          : Zencoder Video Encoding System
Default                                  : Yes
Forced                                   : No
Color range                              : Limited
Color primaries                          : BT.709
Transfer characteristics                 : BT.709
Matrix coefficients                      : BT.709

Audio
ID                                       : 2
Format                                   : AAC LC
Format/Info                              : Advanced Audio Codec Low Complexity
Codec ID                                 : A_AAC-2
Duration                                 : 1 h 37 min
Bit rate                                 : 128 kb/s
Channel(s)                               : 2 channels
Channel layout                           : L R
Sampling rate                            : 44.1 kHz
Frame rate                               : 43.066 FPS (1024 SPF)
Compression mode                         : Lossy
Stream size                              : 88.8 MiB (2%)
Language                                 : English
Default                                  : Yes
Forced                                   : No

Text
ID                                       : 3
Format                                   : UTF-8
Codec ID                                 : S_TEXT/UTF8
Codec ID/Info                            : UTF-8 Plain Text
Duration                                 : 1 h 36 min
Bit rate                                 : 61 b/s
Count of elements                        : 1487
Stream size                              : 43.5 KiB (0%)
Language                                 : English
Default                                  : Yes
Forced                                   : No


悠悠MP4_MP4电影下载_欢迎来到伍普 Welcome.To.Woop.Woop.1997.1080p.WEBRip.AAC2.0.x264-PlayWEB 4.23GB悠悠MP4_MP4电影下载_欢迎来到伍普 Welcome.To.Woop.Woop.1997.1080p.WEBRip.AAC2.0.x264-PlayWEB 4.23GB悠悠MP4_MP4电影下载_欢迎来到伍普 Welcome.To.Woop.Woop.1997.1080p.WEBRip.AAC2.0.x264-PlayWEB 4.23GB


提示:如迅雷下载提示"任务出错"、"因版权无法下载",请尝试【迅雷5】
上传的附件:
最新回复 (0)
返回
本站所有资源均收集自互联网,没有提供影片资源存储, 也未参与录制、上传,若本站收录的资源无意侵犯了您的权益, 请联系邮箱:gogoimgs#gmail.com(#=@)