[2009] [欧美] [BD-1080P] 游戏终点/最后的谈判 Endgame.2009.SUBBED.1080p.BluRay.x264-LCHD 7.94GB

uump4 9天前 96

帖子完整标题:游戏终点/最后的谈判 Endgame.2009.SUBBED.1080p.BluRay.x264-LCHD 7.94GB

悠悠MP4_MP4电影下载_游戏终点/最后的谈判 Endgame.2009.SUBBED.1080p.BluRay.x264-LCHD 7.94GB

◎译  名 游戏终点 / 最后的谈判 / 终局
◎片  名 Endgame
◎年  代 2009
◎产  地 英国
◎上映日期 2009-01-18
◎IMDb评分  6.2/10 from 2599 users
◎IMDb链接  https://www.imdb.com/title/tt1217616
◎豆瓣评分 6.9/10 from 391 users
◎豆瓣链接 https://movie.douban.com/subject/3041270/
◎片  长 109分钟
◎导  演 Pete Travis
◎编  剧 Paula Milne
◎主  演 William Hurt
       Jonny Lee Miller
       Chiwetel Ejiofor
       Mark Strong


◎标  签 英国 | 政治 | 南非 | 种族隔离 | 剧情 | 英国电影 | 2009 | 悬疑

◎简  介 悠悠MP4_MP4电影下载_游戏终点/最后的谈判 Endgame.2009.SUBBED.1080p.BluRay.x264-LCHD 7.94GB  

  彼得·特拉维斯在影片中描绘了致力于瓦解南非种族隔离制度的人物与大事件,本片在圣丹斯独立电影节上首映。
  《终局》(Endgame)是一部基于事实的政治悬疑片,有着强烈的真实感,在对各个角色的参与进行了高度提炼之后,已不仅仅是记录当时历史,还是充满戏剧张力。拍摄这种“现代历史剧”,是英国人的强项。
  片中所说的故事,不过发生在20年多年前。曼德拉仍在狱中,但南非白人政权实施的种族隔离制度,正在把国家带向崩溃。非洲人国民大会(ANC)总部流亡在赞比亚。南非内阁中的部份人士,和ANC之间,出于各种不同的目的,都有相互接触的愿望。然而促成谈判的,却是英国的矿产公司。出于维护其在南非的长期利益,它们希望能够为南非的种族冲突找到政治解决方案。剧中的主角 Michael Young,第一次出场时是混入黑人隔离区,看上去是个记者,但他其实是一家英国矿产公司的代表。
  Michael Young 的活动,代表的是资本集团的利益,但如果没有他本人对于种族歧视的反感,和对社会公义的认同,他也不可能如此深入地介入谈判中。他找到的代表南非白人(Afrikaner)的Willie Esterhuyse 本身是一个倾向自由主义的大学教授,但在背后支持他的却是南非安全部门的头目(Niel Barnard),他支持教授去谈判,是既想利用谈判分化ANC,又意识到改变种族隔离是不可逆转的趋势。在ANC方面,参加谈判的 Thabo Mbeki 既要说服ANC首脑谈判的必要性,还同时面对ANC内部主张武装斗争的强硬派的不满。参与谈判的双方同时感到自己的生命遭受威胁,还不清楚威胁来自何方。与此同时,狱中的曼德拉,也在被拉拢,试图用来分化ANC。
  片中涉及的谈判其实进行了好几年,参与双方最初是相互仇恨、充满怀疑和藐视,慢慢地产生个人层面的信任,促使谈判一直继续下去。最终让南非政局出现转机的,是新总统德克勒克的上任。在多年接触打下的基础上,1990年南非终于释放了曼德拉,并开始和ANC正式开始谈判。
  这部影片的出色之处,是能够把参与谈判各方的背景、动机、个人理念、利益冲突,叙述得十分清楚,既没有把道德立场简单化,又给予各方立场的出发点给以足够的理解。政治是复杂的、谈判总是反复拉锯的,这部片子虽然以“谈”为主,但在反映政治交锋时,却能保持戏剧张力。
  这段并不遥远的谈判历史,给予现实的启示是多方面。当时的ANC,被南非定为恐怖组织,而ANC也确实组织了不少恐怖活动。然而事实证明,与“恐怖份子”接触,进行谈判,是实现政治解决的重要步骤。
  南非的经验,后来也被用在北爱尔兰问题上,当爱尔兰共和军(IRA)仍然在北爱和英格兰制造恐怖事件的同时,英国就已经开始与IRA的政治分支新芬党接触和谈判了。北爱问题的和平解决,是多年来反复谈判的结果――相信不久的将来也会拍成电影。

◎获奖情况  

  第67届金球奖(2010)
  电视类 限定剧/电视电影最佳男主角(提名) 切瓦特·埃加福

Video
ID                                       : 1
Format                                   : AVC
Format/Info                              : Advanced Video Codec
Format profile                           : [email protected]
Format settings                          : CABAC / 4 Ref Frames
Format settings, CABAC                   : Yes
Format settings, ReFrames                : 4 frames
Codec ID                                 : V_MPEG4/ISO/AVC
Duration                                 : 1 h 48 min
Bit rate                                 : 9 689 kb/s
Width                                    : 1 920 pixels
Height                                   : 1 080 pixels
Display aspect ratio                     : 16:9
Frame rate mode                          : Constant
Frame rate                               : 23.976 (24000/1001/189150) FPS
Color space                              : YUV
Chroma subsampling                       : 4:2:0
Bit depth                                : 8 bits
Scan type                                : Progressive
Bits/(Pixel*Frame)                       : 0.195
Stream size                              : 7.20 GiB (91%)
Writing library                          : x264 core 92 r1523 25ca5b0
Encoding settings                        : cabac=1 / ref=4 / deblock=1:-1:-1 / analyse=0x3:0x113 / me=umh / subme=7 / psy=1 / psy_rd=1.00:0.00 / mixed_ref=1 / me_range=16 / chroma_me=1 / trellis=2 / 8x8dct=1 / cqm=0 / deadzone=21,11 / fast_pskip=1 / chroma_qp_offset=-2 / threads=6 / sliced_threads=0 / nr=0 / decimate=1 / interlaced=0 / constrained_intra=0 / bframes=3 / b_pyramid=2 / b_adapt=2 / b_bias=0 / direct=3 / wpredb=1 / wpredp=2 / keyint=250 / keyint_min=25 / scenecut=40 / intra_refresh=0 / rc_lookahead=40 / rc=2pass / mbtree=1 / bitrate=9689 / ratetol=1.0 / qcomp=0.60 / qpmin=10 / qpmax=51 / qpstep=4 / cplxblur=20.0 / qblur=0.5 / vbv_maxrate=50000 / vbv_bufsize=50000 / ip_ratio=1.40 / aq=1:1.00 / nal_hrd=none
Language                                 : English
Default                                  : Yes
Forced                                   : Yes

Audio
ID                                       : 2
Format                                   : DTS
Format/Info                              : Digital Theater Systems
Codec ID                                 : A_DTS
Duration                                 : 1 h 48 min
Bit rate mode                            : Constant
Bit rate                                 : 768 kb/s
Channel(s)                               : 6 channels
Channel layout                           : C L R Ls Rs LFE
Sampling rate                            : 48.0 kHz
Frame rate                               : 93.750 FPS (512 SPF)
Bit depth                                : 16 bits
Compression mode                         : Lossy
Stream size                              : 597 MiB (7%)
Language                                 : English
Default                                  : Yes
Forced                                   : Yes


悠悠MP4_MP4电影下载_游戏终点/最后的谈判 Endgame.2009.SUBBED.1080p.BluRay.x264-LCHD 7.94GB


提示:如迅雷下载提示"任务出错"、"因版权无法下载",请尝试【迅雷5】
上传的附件:
最新回复 (0)
返回
本站所有资源均收集自互联网,没有提供影片资源存储, 也未参与录制、上传,若本站收录的资源无意侵犯了您的权益, 请联系邮箱:gogoimgs#gmail.com(#=@)