[2008] [其他] [剧情] [BD-1080P] 昏睡 Sennosc.2008.1080p.BluRay.x264-LCHD 7.94GB

uump4 13天前 87

帖子完整标题:昏睡 Sennosc.2008.1080p.BluRay.x264-LCHD 7.94GB

悠悠MP4_MP4电影下载_昏睡 Sennosc.2008.1080p.BluRay.x264-LCHD 7.94GB

◎译  名 昏睡
◎片  名 Sennosc
◎年  代 2008
◎产  地 波兰
◎类  别 剧情
◎语  言 波兰语
◎上映日期 2008-10-17
◎IMDb评分  7.1/10 from 473 users
◎IMDb链接  https://www.imdb.com/title/tt1269706
◎豆瓣评分 7.9/10 from 1209 users
◎豆瓣链接 https://movie.douban.com/subject/3267396/
◎片  长 105分钟
◎导  演 Magdalena Piekorz
◎编  剧 Wojciech Kuczok
◎主  演 Malgorzata Kozuchowska
       Michal Zebrowski
       Rafal Mackowiak
       Bartosz Obuchowicz


◎标  签 波兰 | 文艺 | 波兰电影 | 剧情 | 爱情 | 同志 | 昏睡 | 2008

◎简  介 悠悠MP4_MP4电影下载_昏睡 Sennosc.2008.1080p.BluRay.x264-LCHD 7.94GB  

  罗伯特(Krzysztof Zawadzki 饰)是一位小有成就的作家,然而,在感情生活里,他确是个不折不扣的失败者。身为同性恋者的他对妻子无法产生任何感情,毫无激情的生活逐渐消磨了罗伯特的创作欲望。露丝(马格扎塔·科祖楚沃 Malgorzata Kozucho 饰)患有严重的嗜睡症,可是,折磨着她的却并不仅仅只有病痛。在露丝的内心里,丈夫的忠诚与否一直困扰着她。
  亚当(Rafal Mackowiak 饰)出生于农村家庭,学有所成之后,他来到了车水马龙的大城市,在这里,亚当遇见了名叫蓝迪(Bartosz Obuchowicz 饰)的扒手。原本毫无关联的三人,却因为命运的玩笑而被联系到了一起,同样沉浮与生活的漩涡之中,会有怎样的结局等待着他们呢?

Video
ID                                       : 1
Format                                   : AVC
Format/Info                              : Advanced Video Codec
Format profile                           : [email protected]
Format settings                          : CABAC / 4 Ref Frames
Format settings, CABAC                   : Yes
Format settings, Reference frames        : 4 frames
Codec ID                                 : V_MPEG4/ISO/AVC
Duration                                 : 1 h 49 min
Bit rate                                 : 8 845 kb/s
Width                                    : 1 920 pixels
Height                                   : 1 032 pixels
Display aspect ratio                     : 1.85:1
Frame rate mode                          : Constant
Frame rate                               : 24.000 FPS
Color space                              : YUV
Chroma subsampling                       : 4:2:0
Bit depth                                : 8 bits
Scan type                                : Progressive
Bits/(Pixel*Frame)                       : 0.186
Stream size                              : 6.63 GiB (83%)
Writing library                          : x264 core 110 r1803 04b5966
Encoding settings                        : cabac=1 / ref=4 / deblock=1:-1:-1 / analyse=0x3:0x113 / me=umh / subme=7 / psy=1 / psy_rd=1.00:0.00 / mixed_ref=1 / me_range=16 / chroma_me=1 / trellis=1 / 8x8dct=1 / cqm=0 / deadzone=21,11 / fast_pskip=1 / chroma_qp_offset=-2 / threads=12 / sliced_threads=0 / nr=0 / decimate=1 / interlaced=0 / constrained_intra=0 / bframes=3 / b_pyramid=2 / b_adapt=2 / b_bias=0 / direct=3 / weightb=1 / open_gop=0 / weightp=2 / keyint=250 / keyint_min=24 / scenecut=40 / intra_refresh=0 / rc_lookahead=40 / rc=2pass / mbtree=1 / bitrate=8845 / ratetol=1.0 / qcomp=0.60 / qpmin=0 / qpmax=51 / qpstep=4 / cplxblur=20.0 / qblur=0.5 / vbv_maxrate=50000 / vbv_bufsize=50000 / ip_ratio=1.40 / aq=1:1.00 / nal_hrd=none
Language                                 : Polish
Default                                  : Yes
Forced                                   : Yes

Audio
ID                                       : 2
Format                                   : DTS
Format/Info                              : Digital Theater Systems
Codec ID                                 : A_DTS
Duration                                 : 1 h 49 min
Bit rate mode                            : Constant
Bit rate                                 : 1 509 kb/s
Channel(s)                               : 6 channels
Channel layout                           : C L R Ls Rs LFE
Sampling rate                            : 48.0 kHz
Frame rate                               : 93.750 FPS (512 SPF)
Bit depth                                : 24 bits
Compression mode                         : Lossy
Stream size                              : 1.16 GiB (15%)
Language                                 : Polish
Default                                  : Yes
Forced                                   : Yes

Text
ID                                       : 3
Format                                   : UTF-8
Codec ID                                 : S_TEXT/UTF8
Codec ID/Info                            : UTF-8 Plain Text
Language                                 : English
Default                                  : Yes
Forced                                   : No


悠悠MP4_MP4电影下载_昏睡 Sennosc.2008.1080p.BluRay.x264-LCHD 7.94GB


提示:如迅雷下载提示"任务出错"、"因版权无法下载",请尝试【迅雷5】
上传的附件:
最新回复 (0)
返回
本站所有资源均收集自互联网,没有提供影片资源存储, 也未参与录制、上传,若本站收录的资源无意侵犯了您的权益, 请联系邮箱:gogoimgs#gmail.com(#=@)