[2010] [其他] [剧情] [BD-1080P] 捷克囚徒 Kajinek.2010.1080p.BluRay.x264-LCHD 8.74GB

uump4 13天前 112

帖子完整标题:捷克囚徒 Kajinek.2010.1080p.BluRay.x264-LCHD 8.74GB

悠悠MP4_MP4电影下载_捷克囚徒 Kajinek.2010.1080p.BluRay.x264-LCHD 8.74GB

◎译  名 捷克囚徒 / Akte Kajinek / Kajinek
◎片  名 Kajínek
◎年  代 2010
◎产  地 捷克
◎类  别 剧情 / 动作 / 惊悚 / 犯罪
◎语  言 捷克语
◎上映日期 2010
◎IMDb评分  6.0/10 from 824 users
◎IMDb链接  https://www.imdb.com/title/tt1573109
◎豆瓣评分 6.1/10 from 143 users
◎豆瓣链接 https://movie.douban.com/subject/5158520/
◎片  长 Czech Republic: 118 分钟
◎导  演 Petr Jákl
◎编  剧 Petr Jákl / Marek Dobes
◎主  演 康斯坦丁·拉朗尼柯 Konstantin Lavronenko
       Tatiana Vilhelmová
       Boguslaw Linda
       Michal Dlouhy
       Werner Daehn
       Vladimír Dlouhy
       Václav Bárta
       Deana Horváthová
       肯·杜肯 Ken Duken
       Hynek Cermak
       Marek Vasut
       Jana Krausová
       Alice Bendová
       Daniel Svoboda
       Josef Klíma


◎标  签 捷克 | 犯罪 | 捷克电影 | 动作 | 人性 | 真实故事改编 | 历史 | 剧情

◎简  介 悠悠MP4_MP4电影下载_捷克囚徒 Kajinek.2010.1080p.BluRay.x264-LCHD 8.74GB  

  捷克的社会主义政权垮塌,23000名罪犯获得大赦,犯罪率旋即飙升。在此期间,名叫吉里·卡吉尼克(Konstantin Lavronenko 饰)的恶魔臭名昭著,妇孺皆知,他犯下累累罪行,身上背负无数人命。在卡吉尼克入狱的第十个年头,名叫波科洛娃(Tatiana Vilhelmová 饰)的女律师接手了卡吉尼克的案子,她对这个无情恐怖的杀人狂颇感兴趣,但是在对此前的材料和证据进行梳理后,波科洛娃发觉此间有着诸多疑点。在她执著的坚持下,卡吉尼克终于同意这名陌生的女律师为其上诉辩护。在这一过程中,社会体制剧变后的种种黑幕与罪恶也相继浮出水面……
  本片根据真实事件改编,并荣获2011年捷克金狮奖最佳男配角奖(瓦尔迪米尔·德卢西 Vladimír Dlouhy)。

Video
ID                                       : 1
Format                                   : AVC
Format/Info                              : Advanced Video Codec
Format profile                           : [email protected]
Format settings                          : CABAC / 5 Ref Frames
Format settings, CABAC                   : Yes
Format settings, Reference frames        : 5 frames
Codec ID                                 : V_MPEG4/ISO/AVC
Duration                                 : 1 h 55 min
Bit rate                                 : 9 325 kb/s
Width                                    : 1 920 pixels
Height                                   : 816 pixels
Display aspect ratio                     : 2.35:1
Frame rate mode                          : Constant
Frame rate                               : 23.976 FPS
Color space                              : YUV
Chroma subsampling                       : 4:2:0
Bit depth                                : 8 bits
Scan type                                : Progressive
Bits/(Pixel*Frame)                       : 0.248
Stream size                              : 7.35 GiB (84%)
Writing library                          : x264 core 110 r1803 04b5966
Encoding settings                        : cabac=1 / ref=5 / deblock=1:-1:-1 / analyse=0x3:0x113 / me=umh / subme=7 / psy=1 / psy_rd=1.00:0.00 / mixed_ref=1 / me_range=16 / chroma_me=1 / trellis=1 / 8x8dct=1 / cqm=0 / deadzone=21,11 / fast_pskip=1 / chroma_qp_offset=-2 / threads=12 / sliced_threads=0 / nr=0 / decimate=1 / interlaced=0 / constrained_intra=0 / bframes=3 / b_pyramid=2 / b_adapt=2 / b_bias=0 / direct=3 / weightb=1 / open_gop=0 / weightp=2 / keyint=250 / keyint_min=23 / scenecut=40 / intra_refresh=0 / rc_lookahead=40 / rc=2pass / mbtree=1 / bitrate=9325 / ratetol=1.0 / qcomp=0.60 / qpmin=0 / qpmax=51 / qpstep=4 / cplxblur=20.0 / qblur=0.5 / vbv_maxrate=50000 / vbv_bufsize=50000 / ip_ratio=1.40 / aq=1:1.00 / nal_hrd=none
Language                                 : Czech
Default                                  : Yes
Forced                                   : Yes

Audio
ID                                       : 2
Format                                   : DTS
Format/Info                              : Digital Theater Systems
Codec ID                                 : A_DTS
Duration                                 : 1 h 55 min
Bit rate mode                            : Constant
Bit rate                                 : 1 509 kb/s
Channel(s)                               : 6 channels
Channel layout                           : C L R Ls Rs LFE
Sampling rate                            : 48.0 kHz
Frame rate                               : 93.750 FPS (512 SPF)
Bit depth                                : 16 bits
Compression mode                         : Lossy
Stream size                              : 1.22 GiB (14%)
Language                                 : Czech
Default                                  : Yes
Forced                                   : Yes

Text
ID                                       : 3
Format                                   : UTF-8
Codec ID                                 : S_TEXT/UTF8
Codec ID/Info                            : UTF-8 Plain Text
Language                                 : English
Default                                  : Yes
Forced                                   : No


悠悠MP4_MP4电影下载_捷克囚徒 Kajinek.2010.1080p.BluRay.x264-LCHD 8.74GB


提示:如迅雷下载提示"任务出错"、"因版权无法下载",请尝试【迅雷5】
上传的附件:
最新回复 (0)
返回
本站所有资源均收集自互联网,没有提供影片资源存储, 也未参与录制、上传,若本站收录的资源无意侵犯了您的权益, 请联系邮箱:gogoimgs#gmail.com(#=@)