[2007] [其他] [剧情] [BD-1080P] 无论罗拉要什么/玩美舞娘 Whatever.Lola.Wants.2007.PROPER.1080p.BluRay.x264-LCHD 7.94GB

uump4 13天前 108

帖子完整标题:无论罗拉要什么/玩美舞娘 Whatever.Lola.Wants.2007.PROPER.1080p.BluRay.x264-LCHD 7.94GB

悠悠MP4_MP4电影下载_无论罗拉要什么/玩美舞娘 Whatever.Lola.Wants.2007.PROPER.1080p.BluRay.x264-LCHD 7.94GB

◎译  名 无论罗拉要什么 / 玩美舞娘 / 肚皮舞娘
◎片  名 Whatever Lola Wants
◎年  代 2007
◎产  地 加拿大 / 法国
◎类  别 剧情
◎语  言 英语 / 阿拉伯语
◎上映日期 2007-12-11
◎IMDb评分  6.5/10 from 1151 users
◎IMDb链接  https://www.imdb.com/title/tt0758799
◎豆瓣评分 7.6/10 from 3166 users
◎豆瓣链接 https://movie.douban.com/subject/3034445/
◎片  长 USA: 115 分钟
◎导  演 那比尔·艾奥殊 Nabil Ayouch
◎编  剧 那比尔·艾奥殊 Nabil Ayouch / Jane Hawksley
◎主  演 Achmed Akkabi
       Milia Ayache
       Assaad Bouab
       劳拉·莱姆希 Laura Ramsey


◎标  签 励志 | 肚皮舞 | 舞蹈 | 美国 | 埃及 | 美国电影 | 文艺 | 喜剧

◎简  介 悠悠MP4_MP4电影下载_无论罗拉要什么/玩美舞娘 Whatever.Lola.Wants.2007.PROPER.1080p.BluRay.x264-LCHD 7.94GB  

  25岁的罗拉( 劳拉?莱姆希 Laura Ramsey 饰)和一个来自埃及的男同性恋者尤斯(Achmed Akkabi 饰)是室友,生活在纽约。她的工作是邮递员,却从没放弃过做一个优秀舞蹈演员的梦想,成为埃及著名舞蹈家伊斯玛昂(Milia Ayache 饰)那样的舞者。
  在尤斯夫工作的餐馆,罗拉和来自埃及的富家子扎克(Assaad Bouab 饰)成为了好朋友,并渐渐发展成恋人,却因为文化差异的问题,他们的关系不久就终止了,扎克回到了埃及。罗拉义无反顾的前往开罗,一方面想挽救自己的爱情,另一方面也想圆自己的舞蹈梦,去寻找神秘的舞者伊斯玛昂。罗拉能在开罗重获爱情并圆梦吗?
  电影《无论罗拉要什么》曾夺下摩洛哥国际影展的最佳影片大奖。

Video
ID                                       : 1
Format                                   : AVC
Format/Info                              : Advanced Video Codec
Format profile                           : [email protected]
Format settings                          : CABAC / 5 Ref Frames
Format settings, CABAC                   : Yes
Format settings, Reference frames        : 5 frames
Codec ID                                 : V_MPEG4/ISO/AVC
Duration                                 : 1 h 54 min
Bit rate                                 : 8 394 kb/s
Width                                    : 1 920 pixels
Height                                   : 816 pixels
Display aspect ratio                     : 2.35:1
Frame rate mode                          : Constant
Frame rate                               : 23.976 (24000/1001/189150) FPS
Color space                              : YUV
Chroma subsampling                       : 4:2:0
Bit depth                                : 8 bits
Scan type                                : Progressive
Bits/(Pixel*Frame)                       : 0.223
Stream size                              : 6.58 GiB (83%)
Writing library                          : x264 core 98 r1649 c54c47d
Encoding settings                        : cabac=1 / ref=5 / deblock=1:-1:-1 / analyse=0x3:0x113 / me=umh / subme=7 / psy=1 / psy_rd=1.00:0.00 / mixed_ref=1 / me_range=16 / chroma_me=1 / trellis=1 / 8x8dct=1 / cqm=0 / deadzone=21,11 / fast_pskip=1 / chroma_qp_offset=-2 / threads=12 / sliced_threads=0 / nr=0 / decimate=1 / interlaced=0 / constrained_intra=0 / bframes=3 / b_pyramid=2 / b_adapt=2 / b_bias=0 / direct=3 / weightb=1 / weightp=2 / keyint=250 / keyint_min=25 / scenecut=40 / intra_refresh=0 / rc_lookahead=40 / rc=2pass / mbtree=1 / bitrate=8394 / ratetol=1.0 / qcomp=0.60 / qpmin=10 / qpmax=51 / qpstep=4 / cplxblur=20.0 / qblur=0.5 / vbv_maxrate=50000 / vbv_bufsize=50000 / ip_ratio=1.40 / aq=1:1.00 / nal_hrd=none
Language                                 : English
Default                                  : Yes
Forced                                   : Yes

Audio
ID                                       : 2
Format                                   : DTS
Format/Info                              : Digital Theater Systems
Codec ID                                 : A_DTS
Duration                                 : 1 h 54 min
Bit rate mode                            : Constant
Bit rate                                 : 1 509 kb/s
Channel(s)                               : 6 channels
Channel layout                           : C L R Ls Rs LFE
Sampling rate                            : 48.0 kHz
Frame rate                               : 93.750 FPS (512 SPF)
Bit depth                                : 16 bits
Compression mode                         : Lossy
Stream size                              : 1.21 GiB (15%)
Language                                 : English
Default                                  : Yes
Forced                                   : Yes

Text
ID                                       : 3
Format                                   : UTF-8
Codec ID                                 : S_TEXT/UTF8
Codec ID/Info                            : UTF-8 Plain Text
Language                                 : English
Default                                  : Yes
Forced                                   : No


悠悠MP4_MP4电影下载_无论罗拉要什么/玩美舞娘 Whatever.Lola.Wants.2007.PROPER.1080p.BluRay.x264-LCHD 7.94GB


提示:如迅雷下载提示"任务出错"、"因版权无法下载",请尝试【迅雷5】
上传的附件:
最新回复 (0)
返回
本站所有资源均收集自互联网,没有提供影片资源存储, 也未参与录制、上传,若本站收录的资源无意侵犯了您的权益, 请联系邮箱:gogoimgs#gmail.com(#=@)