[2007] [其他] [剧情] [BD-1080P] 阴风鬼影/断魂谷 Wind.Chill.2007.1080p.BluRay.x264-PSYCHD 6.56GB

uump4 9天前 126

帖子完整标题:阴风鬼影/断魂谷 Wind.Chill.2007.1080p.BluRay.x264-PSYCHD 6.56GB

悠悠MP4_MP4电影下载_阴风鬼影/断魂谷 Wind.Chill.2007.1080p.BluRay.x264-PSYCHD 6.56GB

◎译  名 阴风鬼影 / 断魂谷 / 风杀
◎片  名 Wind Chill
◎年  代 2007
◎产  地 美国 / 英国
◎类  别 剧情 / 惊悚 / 恐怖
◎语  言 英语
◎上映日期 2007-08-03(英国)
◎IMDb评分  5.8/10 from 21433 users
◎IMDb链接  https://www.imdb.com/title/tt0486051
◎豆瓣评分 6.1/10 from 821 users
◎豆瓣链接 https://movie.douban.com/subject/2033985/
◎片  长 91 分钟
◎导  演 格里高利·雅各布 Gregory Jacobs
◎编  剧 乔·甘杰米 Joe Gangemi / 史蒂文·卡兹 Steven Katz
◎主  演 Emily Blunt


◎标  签 惊悚 | 恐怖 | 美国 | 美国电影 | 爱情 | 2007 | 悬疑 | EmilyBlunt

◎简  介 悠悠MP4_MP4电影下载_阴风鬼影/断魂谷 Wind.Chill.2007.1080p.BluRay.x264-PSYCHD 6.56GB  

  圣诞将至,工程学的大学女生(艾米丽·勃朗特 Emily Blunt 饰)和同校东方哲学系的男生(阿史顿·霍尔莫斯 Ashton Holmes 饰)相约拼车返回家乡达拉维尔。他们的旅途遥远漫长,两人慢慢放弃最初的拘谨警觉,转而畅谈起来。这个有着芬兰血统的男生性格内向,且有些阴郁,虽然他视女孩为朋友,可是仍令对方心有惴惴。
  天色渐渐暗淡下来,他们的汽车突然拐到一条偏僻的小路上,这让女孩颇为恐慌。行未多久,一辆轿车迎面驶来,在窄小湿滑的小路上,双方躲闪不及发生车祸,男生和女生被困在了原地。无边的黑暗最终降临,危险慢慢逼近,他们注定经历一个永生难忘的噩梦长夜……

Video
ID                                       : 1
Format                                   : AVC
Format/Info                              : Advanced Video Codec
Format profile                           : [email protected]
Format settings                          : CABAC / 5 Ref Frames
Format settings, CABAC                   : Yes
Format settings, Reference frames        : 5 frames
Codec ID                                 : V_MPEG4/ISO/AVC
Duration                                 : 1 h 30 min
Bit rate                                 : 9 960 kb/s
Width                                    : 1 920 pixels
Height                                   : 800 pixels
Display aspect ratio                     : 2.40:1
Frame rate mode                          : Constant
Frame rate                               : 23.976 (24000/1001/189150) FPS
Color space                              : YUV
Chroma subsampling                       : 4:2:0
Bit depth                                : 8 bits
Scan type                                : Progressive
Bits/(Pixel*Frame)                       : 0.270
Stream size                              : 6.18 GiB (94%)
Writing library                          : x264 core 152 r2851 ba24899
Encoding settings                        : cabac=1 / ref=5 / deblock=1:-3:-3 / analyse=0x3:0x113 / me=umh / subme=8 / psy=1 / psy_rd=1.00:0.00 / mixed_ref=1 / me_range=32 / chroma_me=1 / trellis=2 / 8x8dct=1 / cqm=0 / deadzone=21,11 / fast_pskip=1 / chroma_qp_offset=-2 / threads=24 / lookahead_threads=4 / sliced_threads=0 / nr=0 / decimate=1 / interlaced=0 / bluray_compat=0 / constrained_intra=0 / bframes=3 / b_pyramid=2 / b_adapt=2 / b_bias=0 / direct=3 / weightb=1 / open_gop=0 / weightp=2 / keyint=240 / keyint_min=24 / scenecut=40 / intra_refresh=0 / rc_lookahead=50 / rc=2pass / mbtree=1 / bitrate=9960 / ratetol=1.0 / qcomp=0.60 / qpmin=0 / qpmax=69 / qpstep=4 / cplxblur=20.0 / qblur=0.5 / ip_ratio=1.40 / aq=3:0.75
Default                                  : Yes
Forced                                   : No
Statistics Tags Issue                    : no_variable_data 1970-01-01 00:00:00 / no_variable_data 2010-02-22 21:41:29
FromStats_BitRate                        : 9957584
FromStats_Duration                       : 01:30:45.315000000
FromStats_FrameCount                     : 130557
FromStats_StreamSize                     : 6777772761

Audio
ID                                       : 2
Format                                   : AC-3
Format/Info                              : Audio Coding 3
Commercial name                          : Dolby Digital
Codec ID                                 : A_AC3
Duration                                 : 1 h 30 min
Bit rate mode                            : Constant
Bit rate                                 : 384 kb/s
Channel(s)                               : 6 channels
Channel layout                           : L R C LFE Ls Rs
Sampling rate                            : 48.0 kHz
Frame rate                               : 31.250 FPS (1536 SPF)
Compression mode                         : Lossy
Stream size                              : 249 MiB (4%)
Language                                 : English
Service kind                             : Complete Main
Default                                  : Yes
Forced                                   : No
Statistics Tags Issue                    : no_variable_data 1970-01-01 00:00:00 / no_variable_data 2010-02-22 21:41:29
FromStats_BitRate                        : 384000
FromStats_Duration                       : 01:30:45.248000000
FromStats_FrameCount                     : 170164
FromStats_StreamSize                     : 261371904

Text
ID                                       : 3
Format                                   : UTF-8
Codec ID                                 : S_TEXT/UTF8
Codec ID/Info                            : UTF-8 Plain Text
Language                                 : English
Default                                  : No
Forced                                   : No
Statistics Tags Issue                    : no_variable_data 1970-01-01 00:00:00 / no_variable_data 2010-02-22 21:41:29
FromStats_BitRate                        : 44
FromStats_Duration                       : 01:21:22.674000000
FromStats_FrameCount                     : 711
FromStats_StreamSize                     : 27307

Menu
00:00:00.000                             : en:00:00:00.000
00:03:28.208                             : en:00:03:28.208
00:10:15.115                             : en:00:10:15.115
00:20:42.742                             : en:00:20:42.742
00:31:40.399                             : en:00:31:40.399
00:48:45.423                             : en:00:48:45.423
00:57:00.918                             : en:00:57:00.918
01:01:49.706                             : en:01:01:49.706
01:13:38.414                             : en:01:13:38.414
01:22:09.925                             : en:01:22:09.925
01:26:43.699                             : en:01:26:43.699


悠悠MP4_MP4电影下载_阴风鬼影/断魂谷 Wind.Chill.2007.1080p.BluRay.x264-PSYCHD 6.56GB


提示:如迅雷下载提示"任务出错"、"因版权无法下载",请尝试【迅雷5】
上传的附件:
最新回复 (0)
返回
本站所有资源均收集自互联网,没有提供影片资源存储, 也未参与录制、上传,若本站收录的资源无意侵犯了您的权益, 请联系邮箱:gogoimgs#gmail.com(#=@)