[更早] [其他] [剧情] [BD-1080P] 旅店 Austeria.1982.1080p.BluRay.x264-LCHD 7.95GB

uump4 11天前 69

帖子完整标题:旅店 Austeria.1982.1080p.BluRay.x264-LCHD 7.95GB

悠悠MP4_MP4电影下载_旅店 Austeria.1982.1080p.BluRay.x264-LCHD 7.95GB

◎译  名 旅店 / The Inn
◎片  名 Austeria
◎年  代 1982
◎产  地 波兰
◎类  别 剧情 / 战争
◎语  言 波兰语 / 希伯来语 / 德语
◎上映日期 1983-03-28(波兰)
◎IMDb评分 7.0/10 from 496 users
◎IMDb链接 https://www.imdb.com/title/tt0085198
◎豆瓣评分 7.4/10 from 84 users
◎豆瓣链接 https://movie.douban.com/subject/1453600/
◎片  长 109分钟
◎导  演 耶日·卡瓦莱罗维奇 Jerzy Kawalerowicz
◎编  剧 耶日·卡瓦莱罗维奇 Jerzy Kawalerowicz / 塔伏乌什·孔维茨基 Tadeusz Konwicki / Julian Stryjkowski
◎主  演 Franciszek Pieczka
      沃捷希奇·帕斯佐尼亚克 Wojciech Pszoniak
      Jan Szurmiej
      Ewa Domanska
      Wojciech Standello
      Liliana Komorowska
      Szymon Szurmiej
      Golda Tencer
      Marek Wilk
      Zofia Bajuk
      Izabela Wieczorek
      Seweryn Dalecki
      Miroslawa Lombardo
      Stanislaw Igar
      Zofia Saretok


◎标  签 波兰 | 宗教 | 波兰电影 | JerzyKawalerowicz | 杰兹·卡瓦莱洛维奇 | 东欧 | 耶尔齐·卡瓦莱罗维奇 | Jerzy_Kawalerowicz

◎简  介 悠悠MP4_MP4电影下载_旅店 Austeria.1982.1080p.BluRay.x264-LCHD 7.95GB

  1914年,一战前夕的加利西亚省。波兰人、乌克兰人和犹太人这三种不同国籍的人共住在此地区。乡村旅店是由一名聪明的犹太老人经营。邻近的村庄已被犹太人遗弃,因为比哥萨克人将要进驻。很快这间乡村旅店便挤满了落难的犹太人。此外还有一名逃亡的奥地利男爵夫人和一位被军队开除的匈牙利轻骑兵。

Video
ID : 1
Format : AVC
Format/Info : Advanced Video Codec
Format profile : [email protected]
Format settings : CABAC / 4 Ref Frames
Format settings, CABAC : Yes
Format settings, Reference frames : 4 frames
Codec ID : V_MPEG4/ISO/AVC
Duration : 1 h 46 min
Bit rate : 9 186 kb/s
Width : 1 840 pixels
Height : 1 080 pixels
Display aspect ratio : 1.704
Frame rate mode : Constant
Frame rate : 23.976 (24000/1001/189150) FPS
Color space : YUV
Chroma subsampling : 4:2:0
Bit depth : 8 bits
Scan type : Progressive
Bits/(Pixel*Frame) : 0.193
Stream size : 6.67 GiB (84%)
Writing library : x264 core 94 r1583 7608d73
Encoding settings : cabac=1 / ref=4 / deblock=1:-1:-1 / analyse=0x3:0x113 / me=umh / subme=7 / psy=1 / psy_rd=1.00:0.00 / mixed_ref=1 / me_range=16 / chroma_me=1 / trellis=2 / 8x8dct=1 / cqm=0 / deadzone=21,11 / fast_pskip=1 / chroma_qp_offset=-2 / threads=6 / sliced_threads=0 / nr=0 / decimate=1 / interlaced=0 / constrained_intra=0 / bframes=3 / b_pyramid=2 / b_adapt=2 / b_bias=0 / direct=3 / weightb=1 / weightp=2 / keyint=250 / keyint_min=25 / scenecut=40 / intra_refresh=0 / rc_lookahead=40 / rc=2pass / mbtree=1 / bitrate=9186 / ratetol=1.0 / qcomp=0.60 / qpmin=10 / qpmax=51 / qpstep=4 / cplxblur=20.0 / qblur=0.5 / vbv_maxrate=50000 / vbv_bufsize=50000 / ip_ratio=1.40 / aq=1:1.00 / nal_hrd=none
Language : Polish
Default : Yes
Forced : Yes

Audio
ID : 2
Format : DTS
Format/Info : Digital Theater Systems
Codec ID : A_DTS
Duration : 1 h 46 min
Bit rate mode : Constant
Bit rate : 1 509 kb/s
Channel(s) : 6 channels
Channel layout : C L R Ls Rs LFE
Sampling rate : 48.0 kHz
Frame rate : 93.750 FPS (512 SPF)
Bit depth : 16 bits
Compression mode : Lossy
Stream size : 1.12 GiB (14%)
Language : Polish
Default : Yes
Forced : Yes

Text
ID : 3
Format : UTF-8
Codec ID : S_TEXT/UTF8
Codec ID/Info : UTF-8 Plain Text
Language : English
Default : Yes
Forced : No

悠悠MP4_MP4电影下载_旅店 Austeria.1982.1080p.BluRay.x264-LCHD 7.95GB


提示:如迅雷下载提示"任务出错"、"因版权无法下载",请尝试【迅雷5】
上传的附件:
最新回复 (0)
返回
本站所有资源均收集自互联网,没有提供影片资源存储, 也未参与录制、上传,若本站收录的资源无意侵犯了您的权益, 请联系邮箱:gogoimgs#gmail.com(#=@)