[更早] [欧美] [其他] [BD-1080P] 致候吾友 Saludos.Amigos.1942.1080p.BluRay.x264-PSYCHD 4.37GB

uump4 13天前 47

帖子完整标题:致候吾友 Saludos.Amigos.1942.1080p.BluRay.x264-PSYCHD 4.37GB

悠悠MP4_MP4电影下载_致候吾友 Saludos.Amigos.1942.1080p.BluRay.x264-PSYCHD 4.37GB

◎译  名 致候吾友 / Hello, My Friends / 萨鲁多斯元·阿米多斯
◎片  名 Saludos Amigos
◎年  代 1942
◎产  地 美国
◎类  别 动画 / 短片 / 音乐 / 家庭 / 奇幻
◎语  言 英语 / 葡萄牙语
◎上映日期 1943-02-06(美国)
◎IMDb评分  6.2/10 from 4910 users
◎IMDb链接  https://www.imdb.com/title/tt0036326
◎豆瓣评分 7.6/10 from 349 users
◎豆瓣链接 https://movie.douban.com/subject/1907829/
◎片  长 42分钟
◎导  演 Wilfred Jackson / Jack Kinney / 汉密尔顿·卢斯科 Hamilton Luske / Bill Roberts
◎编  剧 Ted Sears / William Cottrell / Webb Smith
◎主  演 Fred Shields
       José Oliveira
       Pinto Colvig
       沃尔特·迪士尼 Walt Disney
       克拉伦斯·纳什 Clarence Nash
       Frank Thomas


◎标  签 动画 | 美国 | 迪斯尼 | 迪士尼 | Disney | 1942 | 动画电影 | DISNEY

◎简  介 悠悠MP4_MP4电影下载_致候吾友 Saludos.Amigos.1942.1080p.BluRay.x264-PSYCHD 4.37GB  

  1940年代初期,欧亚各国正为二次大战打得如火如荼,当时美国原本希望孤立欧亚各国之外免受波及,所以非常重视与中南美的邻邦关系,华特迪士尼之前几部电影《白雪公主》、《木偶奇遇记》等尚无缘与欧亚地区观众见面,但在拉丁美洲已热烈上映,米老鼠、唐老鸭早已风靡当地观众。因此美国国务院就邀请华特迪士尼代表国家到中南美亲善访问。1941年,迪士尼花了约六週的时间走访中南美各国,顺便拍摄了许多当地风土民情,回国后迪士尼便推出了本片。
  本片共包括四个段落∶1. 的的喀喀湖(Lake Titicaca);2. 小飞机培卓(Pedro);3. 高卓族的高飞(El Gaucho Goofy);4. 巴西之旅(Aquarela do Brasil)。四个段落分别是由NormanFerguson、WilfredJackson、JackKinney、HamiltonLuske、BillRoberts共同执导,片中迪士尼运用了巴西知名作曲家AryBarroso创作的一首歌曲“AquareladoBrasil”,由于电影的宣传,让这首歌成为世界名曲!而本片的主题曲“SaludosAmigos”则是由EdmondoSantos作曲、CharlesWolcott作词,获得奥斯卡最佳歌曲提名。
  《致候吾友》是迪士尼第六部经典动画,与1943年推出,是一部纪录片性质动画电影。

◎获奖情况  

  第16届奥斯卡金像奖(1944)
  最佳录音(提名) C.O. Slyfield
  歌舞片最佳配乐(提名) Charles Wolcott / Paul J. Smith / Edward H. Plumb
  最佳原创歌曲(提名) Ned Washington / Charles Wolcott

Video
ID                                       : 1
Format                                   : AVC
Format/Info                              : Advanced Video Codec
Format profile                           : [email protected]
Format settings                          : CABAC / 5 Ref Frames
Format settings, CABAC                   : Yes
Format settings, Reference frames        : 5 frames
Codec ID                                 : V_MPEG4/ISO/AVC
Duration                                 : 42 min 8 s
Bit rate                                 : 13.4 Mb/s
Width                                    : 1 440 pixels
Height                                   : 1 080 pixels
Display aspect ratio                     : 4:3
Frame rate mode                          : Constant
Frame rate                               : 23.976 (24000/1001/189150) FPS
Color space                              : YUV
Chroma subsampling                       : 4:2:0
Bit depth                                : 8 bits
Scan type                                : Progressive
Bits/(Pixel*Frame)                       : 0.359
Stream size                              : 3.84 GiB (88%)
Writing library                          : x264 core 157 r2932 303c484
Encoding settings                        : cabac=1 / ref=5 / deblock=1:1:-2 / analyse=0x3:0x113 / me=umh / subme=8 / psy=1 / psy_rd=0.50:0.00 / mixed_ref=1 / me_range=32 / chroma_me=1 / trellis=2 / 8x8dct=1 / cqm=0 / deadzone=21,11 / fast_pskip=1 / chroma_qp_offset=-2 / threads=34 / lookahead_threads=5 / sliced_threads=0 / nr=0 / decimate=1 / interlaced=0 / bluray_compat=0 / constrained_intra=0 / bframes=3 / b_pyramid=2 / b_adapt=2 / b_bias=0 / direct=3 / weightb=1 / open_gop=0 / weightp=2 / keyint=240 / keyint_min=24 / scenecut=40 / intra_refresh=0 / rc_lookahead=50 / rc=2pass / mbtree=1 / bitrate=13372 / ratetol=1.0 / qcomp=0.60 / qpmin=0 / qpmax=69 / qpstep=4 / cplxblur=20.0 / qblur=0.5 / ip_ratio=1.40 / aq=3:0.50
Default                                  : Yes
Forced                                   : No
Statistics Tags Issue                    : no_variable_data 1970-01-01 00:00:00 / no_variable_data 2010-02-22 21:41:29
FromStats_BitRate                        : 13369458
FromStats_Duration                       : 00:42:01.811000000
FromStats_FrameCount                     : 60463
FromStats_StreamSize                     : 4214405821

Audio
ID                                       : 2
Format                                   : DTS
Format/Info                              : Digital Theater Systems
Codec ID                                 : A_DTS
Duration                                 : 42 min 8 s
Bit rate mode                            : Constant
Bit rate                                 : 1 509 kb/s
Channel(s)                               : 6 channels
Channel layout                           : C L R Ls Rs LFE
Sampling rate                            : 48.0 kHz
Frame rate                               : 93.750 FPS (512 SPF)
Bit depth                                : 24 bits
Compression mode                         : Lossy
Stream size                              : 455 MiB (10%)
Language                                 : English
Default                                  : Yes
Forced                                   : No
Statistics Tags Issue                    : no_variable_data 1970-01-01 00:00:00 / no_variable_data 2010-02-22 21:41:29
FromStats_BitRate                        : 1509000
FromStats_Duration                       : 00:42:08.544000000
FromStats_FrameCount                     : 237051
FromStats_StreamSize                     : 476946612

Text #1
ID                                       : 3
Format                                   : UTF-8
Codec ID                                 : S_TEXT/UTF8
Codec ID/Info                            : UTF-8 Plain Text
Language                                 : English
Default                                  : No
Forced                                   : No
Statistics Tags Issue                    : no_variable_data 1970-01-01 00:00:00 / no_variable_data 2010-02-22 21:41:29
FromStats_BitRate                        : 73
FromStats_Duration                       : 00:41:42.333000000
FromStats_FrameCount                     : 549
FromStats_StreamSize                     : 22874

Text #2
ID                                       : 4
Format                                   : UTF-8
Codec ID                                 : S_TEXT/UTF8
Codec ID/Info                            : UTF-8 Plain Text
Title                                    : SDH
Language                                 : English
Default                                  : No
Forced                                   : No
Statistics Tags Issue                    : no_variable_data 1970-01-01 00:00:00 / no_variable_data 2010-02-22 21:41:29
FromStats_BitRate                        : 79
FromStats_Duration                       : 00:41:42.333000000
FromStats_FrameCount                     : 624
FromStats_StreamSize                     : 24955

Menu
00:00:00.000                             : en:00:00:00.000
00:01:10.654                             : en:00:01:10.654
00:04:14.254                             : en:00:04:14.254
00:11:19.220                             : en:00:11:19.220
00:12:12.690                             : en:00:12:12.690
00:20:06.372                             : en:00:20:06.372
00:23:34.413                             : en:00:23:34.413
00:31:08.158                             : en:00:31:08.158
00:33:59.579                             : en:00:33:59.579


悠悠MP4_MP4电影下载_致候吾友 Saludos.Amigos.1942.1080p.BluRay.x264-PSYCHD 4.37GB


提示:如迅雷下载提示"任务出错"、"因版权无法下载",请尝试【迅雷5】
上传的附件:
最新回复 (0)
返回
本站所有资源均收集自互联网,没有提供影片资源存储, 也未参与录制、上传,若本站收录的资源无意侵犯了您的权益, 请联系邮箱:gogoimgs#gmail.com(#=@)