[2011] [其他] [剧情] [BD-1080P] 灌装啤电影 Six.Pack.Movie.2011.1080p.BluRay.x264-MCHD 6.53GB

uump4 9天前 72

帖子完整标题:灌装啤电影 Six.Pack.Movie.2011.1080p.BluRay.x264-MCHD 6.53GB

悠悠MP4_MP4电影下载_灌装啤电影 Six.Pack.Movie.2011.1080p.BluRay.x264-MCHD 6.53GB

◎译  名 灌装啤电影
◎片  名 Pussikaljaelokuva
◎年  代 2011
◎产  地 芬兰
◎类  别 剧情 / 喜剧
◎语  言 芬兰语
◎上映日期 2011
◎IMDb评分  5.4/10 from 1287 users
◎IMDb链接  https://www.imdb.com/title/tt1606657
◎豆瓣评分 0/10 from 0 users
◎豆瓣链接 https://movie.douban.com/subject/5155722/
◎片  长 80分钟
◎导  演 Ville Jankeri
◎编  剧 Ville Jankeri

◎标  签 芬兰 | 2011 | 喜剧 | 芬兰电影

◎简  介 悠悠MP4_MP4电影下载_灌装啤电影 Six.Pack.Movie.2011.1080p.BluRay.x264-MCHD 6.53GB  

  《灌装啤电影》是维里·杨科利的首部长片,讲述发生在赫尔斯基的“贫民区”卡里奥区的一天之内,“三名年轻人和一捆罐装啤”之间的故事。

Video
ID                                       : 1
Format                                   : AVC
Format/Info                              : Advanced Video Codec
Format profile                           : [email protected]
Format settings                          : CABAC / 4 Ref Frames
Format settings, CABAC                   : Yes
Format settings, Reference frames        : 4 frames
Codec ID                                 : V_MPEG4/ISO/AVC
Duration                                 : 1 h 20 min
Bit rate                                 : 10.6 Mb/s
Width                                    : 1 920 pixels
Height                                   : 1 080 pixels
Display aspect ratio                     : 16:9
Frame rate mode                          : Constant
Frame rate                               : 23.976 (24000/1001/189150) FPS
Color space                              : YUV
Chroma subsampling                       : 4:2:0
Bit depth                                : 8 bits
Scan type                                : Progressive
Bits/(Pixel*Frame)                       : 0.212
Stream size                              : 5.76 GiB (88%)
Writing library                          : x264 core 120 r2146 bcd41db
Encoding settings                        : cabac=1 / ref=4 / deblock=1:0:0 / analyse=0x3:0x133 / me=umh / subme=7 / psy=1 / psy_rd=1.00:0.00 / mixed_ref=1 / me_range=16 / chroma_me=1 / trellis=1 / 8x8dct=1 / cqm=0 / deadzone=21,11 / fast_pskip=0 / chroma_qp_offset=-2 / threads=6 / sliced_threads=0 / nr=0 / decimate=1 / interlaced=0 / bluray_compat=0 / constrained_intra=0 / bframes=3 / b_pyramid=2 / b_adapt=2 / b_bias=0 / direct=3 / weightb=1 / open_gop=0 / weightp=2 / keyint=250 / keyint_min=23 / scenecut=40 / intra_refresh=0 / rc_lookahead=50 / rc=2pass / mbtree=1 / bitrate=10559 / ratetol=1.0 / qcomp=0.60 / qpmin=0 / qpmax=69 / qpstep=4 / cplxblur=20.0 / qblur=0.5 / ip_ratio=1.40 / aq=1:1.00
Language                                 : English
Default                                  : No
Forced                                   : No

Audio
ID                                       : 2
Format                                   : DTS
Format/Info                              : Digital Theater Systems
Codec ID                                 : A_DTS
Duration                                 : 1 h 20 min
Bit rate mode                            : Constant
Bit rate                                 : 1 152 kb/s
Channel(s)                               : 6 channels
Channel layout                           : C L R Ls Rs LFE
Sampling rate                            : 48.0 kHz
Frame rate                               : 93.750 FPS (512 SPF)
Bit depth                                : 24 bits
Compression mode                         : Lossy
Stream size                              : 661 MiB (10%)
Language                                 : Finnish
Default                                  : Yes
Forced                                   : No

Text #1
ID                                       : 3
Format                                   : UTF-8
Codec ID                                 : S_TEXT/UTF8
Codec ID/Info                            : UTF-8 Plain Text
Language                                 : English
Default                                  : Yes
Forced                                   : No

Text #2
ID                                       : 4
Format                                   : UTF-8
Codec ID                                 : S_TEXT/UTF8
Codec ID/Info                            : UTF-8 Plain Text
Language                                 : Finnish
Default                                  : No
Forced                                   : No

Text #3
ID                                       : 5
Format                                   : UTF-8
Codec ID                                 : S_TEXT/UTF8
Codec ID/Info                            : UTF-8 Plain Text
Language                                 : Swedish
Default                                  : No
Forced                                   : No

Text #4
ID                                       : 6
Format                                   : UTF-8
Codec ID                                 : S_TEXT/UTF8
Codec ID/Info                            : UTF-8 Plain Text
Language                                 : Norwegian
Default                                  : No
Forced                                   : No

Text #5
ID                                       : 7
Format                                   : UTF-8
Codec ID                                 : S_TEXT/UTF8
Codec ID/Info                            : UTF-8 Plain Text
Language                                 : Danish
Default                                  : No
Forced                                   : No


悠悠MP4_MP4电影下载_灌装啤电影 Six.Pack.Movie.2011.1080p.BluRay.x264-MCHD 6.53GB


提示:如迅雷下载提示"任务出错"、"因版权无法下载",请尝试【迅雷5】
上传的附件:
最新回复 (0)
返回
本站所有资源均收集自互联网,没有提供影片资源存储, 也未参与录制、上传,若本站收录的资源无意侵犯了您的权益, 请联系邮箱:gogoimgs#gmail.com(#=@)